[Documentary | Drama | Music - 1 Link] ABBA The Movie 1977 1080p DTS multisub HighCode-PHD

Thảo luận trong 'Fshare.vn' bắt đầu bởi anbinhdo, 7/5/13.

  1. anbinhdo

    anbinhdo Well-Known Member

    Tham gia ngày:
    3/3/10
    Bài viết:
    12,391
    Đã được cảm ơn:
    348
    Nghề nghiệp:
    Điện Tử Viễn Thông
    Nơi ở:
    TP Đà Nẵng - Việt Nam
    ABBA The Movie 1977 1080p DTS multisub HighCode-PHD


    [​IMG]


    Mã:
    
    
    	

    [COLOR="#0000FF"] General Unique ID : 209890013141185780908121888824844290236 (0x9DE7589C36E915258062B053F21F08BC) Complete name : K:\HD WD- PHIM\ABBA The Movie 1977 1080p DTS multisub HighCode-PHD\ABBA The Movie 1977 1080p DTS multisub HighCode-PHD.mkv Format : Matroska Format version : Version 2 File size : 4.30 GiB Duration : 1h 35mn Overall bit rate : 6 459 Kbps Encoded date : UTC 2012-08-03 01:27:58 Writing application : mkvmerge v5.7.0 ('The Whirlwind') built on Jul 8 2012 20:08:51 Writing library : libebml v1.2.3 + libmatroska v1.3.0 Video ID : 1 Format : AVC Format/Info : Advanced Video Codec Format profile : High@L5.0 Format settings, CABAC : Yes Format settings, ReFrames : 8 frames Codec ID : V_MPEG4/ISO/AVC Duration : 1h 35mn Bit rate : 5 700 Kbps Width : 1 920 pixels Height : 832 pixels Display aspect ratio : 2.35:1 Frame rate mode : Constant Frame rate : 24.000 fps Color space : YUV Chroma subsampling : 4:2:0 Bit depth : 8 bits Scan type : Progressive Bits/(Pixel*Frame) : 0.149 Stream size : 3.71 GiB (86%) Title : ABBA The Movie 1977 1080p DTS multisub HighCode-PHD Writing library : x264 core 120 Encoding settings : cabac=1 / ref=8 / deblock=1:-3:-3 / analyse=0x3:0x133 / me=umh / subme=10 / psy=1 / psy_rd=1.00:0.00 / mixed_ref=1 / me_range=64 / chroma_me=1 / trellis=2 / 8x8dct=1 / cqm=0 / deadzone=21,11 / fast_pskip=1 / chroma_qp_offset=-2 / threads=6 / sliced_threads=0 / nr=0 / decimate=1 / interlaced=0 / bluray_compat=0 / constrained_intra=0 / bframes=8 / b_pyramid=2 / b_adapt=2 / b_bias=0 / direct=3 / weightb=1 / open_gop=0 / weightp=2 / keyint=240 / keyint_min=24 / scenecut=40 / intra_refresh=0 / rc_lookahead=100 / rc=2pass / mbtree=1 / bitrate=5700 / ratetol=1.0 / qcomp=0.60 / qpmin=3 / qpmax=69 / qpstep=4 / cplxblur=20.0 / qblur=0.5 / ip_ratio=1.40 / aq=1:1.00 Language : English Default : Yes Forced : No Color primaries : BT.709 Transfer characteristics : BT.709 Matrix coefficients : BT.709 Audio ID : 2 Format : DTS Format/Info : Digital Theater Systems Mode : 16 Format settings, Endianness : Big Codec ID : A_DTS Duration : 1h 35mn Bit rate mode : Constant Bit rate : 755 Kbps Channel(s) : 6 channels Channel positions : Front: L C R, Side: L R, LFE Sampling rate : 48.0 KHz Bit depth : 24 bits Compression mode : Lossy Stream size : 514 MiB (12%) Language : English Default : Yes Forced : No Text #1 ID : 3 Format : UTF-8 Codec ID : S_TEXT/UTF8 Codec ID/Info : UTF-8 Plain Text Language : English Default : Yes Forced : No Text #2 ID : 4 Format : UTF-8 Codec ID : S_TEXT/UTF8 Codec ID/Info : UTF-8 Plain Text Language : Arabic Default : No Forced : No Text #3 ID : 5 Format : UTF-8 Codec ID : S_TEXT/UTF8 Codec ID/Info : UTF-8 Plain Text Language : Bulgarian Default : No Forced : No Text #4 ID : 6 Format : UTF-8 Codec ID : S_TEXT/UTF8 Codec ID/Info : UTF-8 Plain Text Language : Czech Default : No Forced : No Text #5 ID : 7 Format : UTF-8 Codec ID : S_TEXT/UTF8 Codec ID/Info : UTF-8 Plain Text Language : Dutch Default : No Forced : No Text #6 ID : 8 Format : UTF-8 Codec ID : S_TEXT/UTF8 Codec ID/Info : UTF-8 Plain Text Language : Estonian Default : No Forced : No Text #7 ID : 9 Format : UTF-8 Codec ID : S_TEXT/UTF8 Codec ID/Info : UTF-8 Plain Text Language : French Default : No Forced : No Text #8 ID : 10 Format : UTF-8 Codec ID : S_TEXT/UTF8 Codec ID/Info : UTF-8 Plain Text Language : German Default : No Forced : No Text #9 ID : 11 Format : UTF-8 Codec ID : S_TEXT/UTF8 Codec ID/Info : UTF-8 Plain Text Language : Greek Default : No Forced : No Text #10 ID : 12 Format : UTF-8 Codec ID : S_TEXT/UTF8 Codec ID/Info : UTF-8 Plain Text Language : Hebrew Default : No Forced : No Text #11 ID : 13 Format : UTF-8 Codec ID : S_TEXT/UTF8 Codec ID/Info : UTF-8 Plain Text Language : Hungarian Default : No Forced : No Text #12 ID : 14 Format : UTF-8 Codec ID : S_TEXT/UTF8 Codec ID/Info : UTF-8 Plain Text Language : Italian Default : No Forced : No Text #13 ID : 15 Format : VobSub Muxing mode : zlib Codec ID : S_VOBSUB Codec ID/Info : The same subtitle format used on DVDs Language : Japanese Default : No Forced : No Text #14 ID : 16 Format : UTF-8 Codec ID : S_TEXT/UTF8 Codec ID/Info : UTF-8 Plain Text Language : Polish Default : No Forced : No Text #15 ID : 17 Format : UTF-8 Codec ID : S_TEXT/UTF8 Codec ID/Info : UTF-8 Plain Text Language : Portuguese Default : No Forced : No Text #16 ID : 18 Format : UTF-8 Codec ID : S_TEXT/UTF8 Codec ID/Info : UTF-8 Plain Text Language : Romanian Default : No Forced : No Text #17 ID : 19 Format : UTF-8 Codec ID : S_TEXT/UTF8 Codec ID/Info : UTF-8 Plain Text Language : Russian Default : No Forced : No Text #18 ID : 20 Format : UTF-8 Codec ID : S_TEXT/UTF8 Codec ID/Info : UTF-8 Plain Text Language : Slovenian Default : No Forced : No Text #19 ID : 21 Format : UTF-8 Codec ID : S_TEXT/UTF8 Codec ID/Info : UTF-8 Plain Text Language : Spanish Default : No Forced : No Text #20 ID : 22 Format : UTF-8 Codec ID : S_TEXT/UTF8 Codec ID/Info : UTF-8 Plain Text Language : Swedish Default : No Forced : No [/COLOR]
    Mã:
    [COLOR="#0000FF"]Ratings: [COLOR="#FF0000"][B]  6,2/10  [/B][/COLOR] from[URL="http://www.imdb.com/title/tt0075617/ratings?ref_=tt_ov_rt"] [U][COLOR="#FF0000"]   1.845 users     [/COLOR][/U] [/URL]   
    
    
    Director:
    Lasse Hallström
    Writers:
    Robert Caswell, Lasse Hallström
    Stars:
    Anni-Frid Lyngstad, Benny Andersson, Björn Ulvaeus
    
    [COLOR="#FF0000"][B]Lưu ý:[/B][/COLOR] Thông tin được cập nhật vào lúc 2013-05-07 nên có thể đã cũ, vui lòng nhấp vào [URL="http://www.imdb.com/title/tt0075617/?ref_=fn_al_tt_1"][COLOR="#FF0000"][B]đây [/B][/COLOR][/URL] để cập nhật thông tin mới[/COLOR]
    
    ABBA The Movie 1977 1080p DTS multisub HighCode-PHD.mkv_thumbs_[2013.05.07_13.51.31].jpg

    1 Link : 4.30 G

    Nhấn nút Cảm ơn (dưới chân bài) để thấy link!



    [video=youtube;XaQpbL5arLA]http://www.youtube.com/watch?v=XaQpbL5arLA[/video]​

    p/s:
    Share cho anh em đang cần.
     
    hamvui55, thanhtung90 and fsvnhd like this.
  2. pantau

    pantau Active Member

    Tham gia ngày:
    23/12/09
    Bài viết:
    1,364
    Đã được cảm ơn:
    2
    thử phát xem có lét không. xưa nay thấy chả có bản nào ra hồn cả =))
     

Chia sẻ trang này