[Fshare 1 link][Hài hước] Norbit 2007 1080p x264 DTS - TwIzZy (Kingdom-Release) - Chàng Norbit [Eddi

Thảo luận trong 'Fshare.vn' bắt đầu bởi tuanvip1072, 12/7/13.

  1. tuanvip1072

    tuanvip1072 Active Member

    Tham gia ngày:
    29/12/11
    Bài viết:
    74
    Đã được cảm ơn:
    122
    Nơi ở:
    Việt Nam
    Norbit 2007 1080p x264 DTS - TwIzZy
    Chàng Norbit
    Eddie Murphy; Thandie Newton

    [​IMG]

    Mã:

    General
    
    	

    Unique ID : 241352013803820069690604960519952610595 (0xB592B501610EAD1BB4D62FDA17913523) Complete name : J:\HD - 3D\HD Movies\Norbit\Norbit.2007.1080p.x264.DTS - TwIzZy (Kingdom-Release).mkv Format : Matroska Format version : Version 4 / Version 2 File size : 11.7 GiB Duration : 1h 42mn Overall bit rate : 16.5 Mbps Encoded date : UTC 2013-06-25 03:00:38 Writing application : mkvmerge v6.2.0 ('Promised Land') built on Apr 28 2013 12:22:01 Writing library : libebml v1.3.0 + libmatroska v1.4.0 Video ID : 2 Format : AVC Format/Info : Advanced Video Codec Format profile : Baseline@L4.1 Format settings, CABAC : No Format settings, ReFrames : 1 frame Format settings, GOP : M=1, N=12 Codec ID : V_MPEG4/ISO/AVC Duration : 1h 42mn Bit rate : 14.6 Mbps Width : 1 920 pixels Height : 1 080 pixels Display aspect ratio : 16:9 Frame rate mode : Constant Frame rate : 23.976 fps Color space : YUV Chroma subsampling : 4:2:0 Bit depth : 8 bits Scan type : Progressive Bits/(Pixel*Frame) : 0.293 Stream size : 10.4 GiB (88%) Language : English Default : Yes Forced : No Audio ID : 1 Format : DTS Format/Info : Digital Theater Systems Mode : 16 Format settings, Endianness : Big Codec ID : A_DTS Duration : 1h 42mn Bit rate mode : Constant Bit rate : 1 589 Kbps Channel(s) : 2 channels Channel positions : Front: L R Sampling rate : 48.0 KHz Bit depth : 16 bits Compression mode : Lossy Stream size : 1.13 GiB (10%) Default : Yes Forced : No
    Nội dung

    Screenshots

    [​IMG]

    [​IMG]

    [​IMG]

    Trailer

    [video=youtube;MmSZJ17ppEQ]http://www.youtube.com/watch?v=MmSZJ17ppEQ[/video]

    Download

    Link tải phim
    Nhấn nút Cảm ơn (dưới chân bài) để thấy link!


    Sub

    Nhận xét của riêng mình : phim này rất vui, do không kiếm được bản HD nên mình đã download torrent, convert lại và up lên !
    Mong anh em ủng hộ !
     
  2. tuanvip1072

    tuanvip1072 Active Member

    Tham gia ngày:
    29/12/11
    Bài viết:
    74
    Đã được cảm ơn:
    122
    Nơi ở:
    Việt Nam
    Ðề: [Fshare 1 link][Hài hước] Norbit 2007 1080p x264 DTS - TwIzZy (Kingdom-Release) - Chàng Norbit [Eddie Murphy; Thandie Newton]

    Bản 720p

    Mã:
    http://www.hdvietnam.com/diendan/33-fshare-vn/631515-fshare-1-link-hai-huoc-norbit.html
     
  3. duc_binh_forever

    duc_binh_forever Member

    Tham gia ngày:
    19/11/09
    Bài viết:
    30
    Đã được cảm ơn:
    3
    Link die rồi, ai có down về xin re-up lên giùm e, e cảm ơn
     
  4. hoadainhan70

    hoadainhan70 Well-Known Member

    Tham gia ngày:
    11/12/09
    Bài viết:
    2,344
    Đã được cảm ơn:
    1,487

Chia sẻ trang này