[Fshare] Chia sẽ phim Hd từ CafeHD

Thảo luận trong '3D' bắt đầu bởi ilosiz, 8/9/12.

  1. ilosiz

    ilosiz New Member

    Tham gia ngày:
    28/8/12
    Bài viết:
    116
    Đã được cảm ơn:
    3
    Điểm thành tích:
    0
    Tiền:
    65 CR
    IMAX Deep Sea 3D.2006.HDTV.720p.60Hz.DNM

    [​IMG]

    [​IMG]
    Mã:
    
    
    	

    http://www.imdb.com/title/tt0424942

    Complete name : IMAX Deep Sea 3D.2006.HDTV.720p.60Hz.DNM Format : Matroska File size : 2.19 GiB Video #0 Codec/Family : MPEG-4V Codec/Info : Project Mayo DivX 4 PlayTime : 34mn 16s Bit rate : 8374 Kbps Width : 1280 pixels Height : 720 pixels Display Aspect ratio : 16/9 Frame rate : 60.014 fps Audio #0 Codec : AC3 PlayTime : 34mn 16s Bit rate : 384 Kbps Channel(s) : 6 channels Channel positions : Front: L C R, Rear: L R, LFE Sampling rate : 48.0 KHz
    [​IMG]


    [​IMG][​IMG]
    [​IMG][​IMG]

    [​IMG]
    Cảm ơn để thấy link!


    [HR][/HR]

    Journey to the Center of the Earth 2008 720p BluRay x264 - iLL

    [​IMG]

    [​IMG]
    Mã:
    http://imdb.com/title/tt0373051/
    Genre: Action / Adventure / Family / Fantasy / Sci-Fi / Thriller
    Plot: On a quest to find out what happened to his missing brother,
    a scientist, his nephew and their mountain guide discover a fantastic and
    dangerous lost world in the center of the earth.
    Released: 05.11.2008
    File Name: Journey.to.the.Center.of.the.Earth.2008.720p.BluRay.x264-iLL
    Runtime: 1:32:34
    File Size: 4.09 GB (4,398,461,874 bytes), DVD5
    Codec: x264, 2pass - L4.1
    Bitrate: 5498 Kbps
    Resolution: 1280x720 (1.78:1)
    Framerate: 23.976 fps
    Audio 1: English AC3 5.1 640 Kbps
    Audio 2: Commentary AC3 2.0 192 Kbps
    Subtitles: English,Danish,French,Spanish,Swedish .srt
    Sample: 30.3 MB (31,790,484 bytes)
    Source: JttCotE 2008 2/3-D 1080p Blu-ray VC-1 DD5.1 CtrlHD
    
    [​IMG]
    One Link + Sub
    Cảm ơn để thấy link!


    [HR][/HR]

    Coraline.2009.3D.720p.BluRay.x264-REFiNED (Film 3D)

    [​IMG]
    [​IMG]
    Mã:
    http://www.imdb.com/title/tt0327597/
        GENRE…………….: Animation | Adventure | Family | Fantasy
        RATiNG……………: 7.8/10 (35,352 votes) 
        iMDB tt0327597 
        RELEASE DATE………: 2010-04-18 
        ENCODE BY…………: dong1010 
        RUNTiME…………..: 1h 40mn 
        FiLE SiZE…………: 4.37 GiB 
        ViDEO CODEC……….: x264 4323 Kbps 
        AUDiO CODEC……….: DTS 1510kbps + DD5.1 384 kpbs
        FRAMERATE…………: 23.976 
        RESOLUTiON………..: 1280 x 692 
        LANGUAGE………….: English/ Chinese
    
    [​IMG]
    Cảm ơn để thấy link!


    [HR][/HR]

    Priest 3D.2011.1080p.[3D Half SBS].H264.DTS.5.1.ENG
    Thuyết minh 5.1


    [​IMG]

    [​IMG]
    Mã:
    http://www.imdb.com/title/tt0822847/
    RELEASE DATE....: 07/18/2011
    THEATRE DATE....: 05/13/2011
    GENRE...........: Action | Horror | Sci-Fi
    SOURCE .........: BluRay 1080p AVC DTS-HD5.1
    ViDEO BiTRATE...: x264 @ 5039 Kbps
    RESOLUTiON......: 1920x1080
    ASPECT RATiO....: 2.4 : 1
    FRAME RATE......: 23.976 fps
    RUNTiME.........: 87 mins
    AUDiO BiTRATE...: DTS @ 1509 Kbps
    LANGUAGE........: English
    SUBTiTLES.......: None
    FilE SiZE.......: 8.15GB
    
    [​IMG]
    Cảm ơn để thấy link!


    [HR][/HR]

    Còn Tiếp Ở Dưới...
     
    Chỉnh sửa cuối: 8/9/12
  2. ilosiz

    ilosiz New Member

    Tham gia ngày:
    28/8/12
    Bài viết:
    116
    Đã được cảm ơn:
    3
    Điểm thành tích:
    0
    Tiền:
    65 CR
    Bugs.3D.2003.720p.HDDVD.x264-HDL

    [​IMG]

    [​IMG]
    Mã:
    www.imdb.com/title/tt0337587/
    
    RELEASE.NAME.... Bugs.3D.2003.720p.HDDVD.x264-HDL
    SOURCE.......... Bugs A Rainforest Adventure HD DVD 1080p
    RESOLUTiON...... 1280x720
    RUNTiME......... 40m:06s
    FRAMERATE....... 23.976 fps
    CODEC........... x264 @ 6033 kbps (crf18)
    LANGUAGE........ English AC3 5.1
    SiZE............ 1.8 GB
    ENCODER......... hdlover
    
    [​IMG]
    Cảm ơn để thấy link!


    [HR][/HR]

    Sea.Monsters.A.Prehistoric.Adventure.2007.3D.1080p.BluRay.x264-HiDt

    [​IMG]

    [​IMG]
    Mã:
    http://www.imdb.com/title/tt1027743/
    
    Sea Monsters: A Prehistoric Adventure (2007) 3D
    
    Tagline:
    
    82 million years in the making
    
    Plot:
    
    Brings to life some of the most bizarre, ferocious
    and fascinating creatures to ever inhabit the ocean...
    
    Sea.Monsters.A.Prehistoric.Adventure.2007.3D.1080p .BluRay.x264-HiDt
    
    General Information:
    
    RUNTIME........: 39mn 28s
    SIZE...........: DVD5
    VIDEO CODEC....: x264 (DXVA)
    RESOLUTION.....: 1920x1080
    BITRATE........: 15.1 Mbps
    FRAMERATE......: 23.976 fps
    AUDIO..........: English AC3 5.1 640 Kbps
    SUBTITLES......: English, Bulgarian - ASS
    SOURCE.........: Sea Monsters: A Prehistoric Adventure 2007 1080p Blu-ray AVC DD5.1-SSG
    GENRE..........: Documentary | Animation | Short | Adventure
    RATING.........: 7.2/10 205 votes
    
    [​IMG]
    Cảm ơn để thấy link!


    [HR][/HR]

    My.Bloody.Valentine.2009.3D.720p.BluRay.x264-NGR

    [​IMG]

    [​IMG]
    Mã:
    http://www.imdb.com/title/tt1179891/
    
    Title: My Bloody Valentine
    Year: 2009
    Runtime: 101 mins
    Language: English
    Country: USA, IMDb USA section
    All Genres: Crime, Horror, Mystery, Thriller, IMDb Crime section
    Tagline: On January 16, Get Your Heart Broken.
    Director: Patrick Lussier
    Writing By: Todd Farmer Zane Smith John Beaird Stephen Miller
    Produced By: John Dunning André Link Jonathan McCoy Jack L. Murray Michael Paseornek Hernany Perla John Sacchi
    Music: Michael Wandmacher
    
    [​IMG]
    Cảm ơn để thấy link!


    [HR][/HR]

    Còn Tiếp Ở Dưới...
     
    Chỉnh sửa cuối: 10/9/12
  3. kittyngoc_dp_

    kittyngoc_dp_ New Member

    Tham gia ngày:
    18/4/11
    Bài viết:
    32
    Đã được cảm ơn:
    0
    Điểm thành tích:
    0
    Tiền:
    147 CR
    Ðề: [Fshare] Chia sẽ phim Hd từ CafeHD

    Hya quá, thank... Bạn có bản nào 3D Anaglyph kính red-cyan ko share cho mình và mọi người với?
     
  4. ilosiz

    ilosiz New Member

    Tham gia ngày:
    28/8/12
    Bài viết:
    116
    Đã được cảm ơn:
    3
    Điểm thành tích:
    0
    Tiền:
    65 CR
    Sharks.3D.3DBD.2010.DL.1080p.X264.half.SBS.z-man.mkv
    [​IMG]

    Mã:
    http://www.imdb.com/title/tt0443637/
    
    Format                         : AVC
    Format/Info                    : Advanced Video Codec
    Format profile                 : High@L4.1
    Format settings, CABAC         : Yes
    Format settings, ReFrames      : 4 frames
    Codec ID                       : V_MPEG4/ISO/AVC
    Duration                       : 41mn 35s
    Bit rate                       : 15.5 Mbps
    Width                          : 1 920 pixels
    Height                         : 1 080 pixels
    Display aspect ratio           : 16:9
    Frame rate                     : 23.976 fps
    Color space                    : YUV
    Chroma subsampling             : 4:2:0
    Bit depth                      : 8 bits
    Scan type                      : Progressive
    Bits/(Pixel*Frame)             : 0.312
    Stream size                    : 4.51 GiB (86%)
    Title                          : made by z-man
    Writing library                : x264 core 110 r1820 fdcf2ae
    Encoding settings              : cabac=1 / ref=4 / deblock=1:-1:-1 / analyse=0x3:0x113 / me=umh / subme=7 / psy=1 / psy_rd=1.00:0.15 / mixed_ref=1 / me_range=16 / chroma_me=1 / trellis=1 / 8x8dct=1 / cqm=0 / deadzone=21,11 / fast_pskip=1 / chroma_qp_offset=-3 / threads=18 / sliced_threads=0 / nr=0 / decimate=1 / interlaced=0 / constrained_intra=0 / bframes=3 / b_pyramid=2 / b_adapt=1 / b_bias=0 / direct=3 / weightb=1 / open_gop=0 / weightp=2 / keyint=250 / keyint_min=23 / scenecut=40 / intra_refresh=0 / rc_lookahead=40 / rc=crf / mbtree=1 / crf=18.0 / qcomp=0.60 / qpmin=0 / qpmax=51 / qpstep=4 / ip_ratio=1.40 / aq=1:1.00
    Language                       : English
    Default                        : Yes
    Forced                         : No
    
    Audio #1
    ID                             : 2
    Format                         : DTS
    Format/Info                    : Digital Theater Systems
    Codec ID                       : A_DTS
    Duration                       : 41mn 35s
    Bit rate mode                  : Constant
    Bit rate                       : 1 510 Kbps
    Channel(s)                     : 6 channels
    Channel positions              : Front: L C R, Side: L R, LFE
    Sampling rate                  : 48.0 KHz
    Bit depth                      : 24 bits
    Compression mode               : Lossy
    Stream size                    : 449 MiB (8%)
    Language                       : English
    Default                        : Yes
    Forced                         : No
    
    [​IMG]
    Cảm ơn để thấy link!


    [HR][/HR]

    Resident.Evil.Afterlive.3D.3DBD.2010.English.1080p.half.SBS.z-man

    [​IMG]


    Mã:
    www.imdb.com/title/tt1220634/
    
    Tên phim: Resident Evil: Afterlife 3D (2010)
    Đạo diễn: Paul W.S. Anderson
    Kịch bản: Paul W.S. Anderson
    Thể loại: Action | Adventure | Horror 
    Đánh giá: 6.1/10 (24,352 votes)
    Thời lượng: 97 mins
    Ngôn ngữ: English | Japanese
    Quốc gia: Germany | France | UK
    
    Video
    ID                             : 1
    Format                         : AVC
    Format/Info                    : Advanced Video Codec
    Format profile                 : High@L4.1
    Format settings, CABAC         : Yes
    Format settings, ReFrames      : 4 frames
    Codec ID                       : V_MPEG4/ISO/AVC
    Duration                       : 1h 36mn
    Bit rate                       : 6 851 Kbps
    Width                          : 1 920 pixels
    Height                         : 1 080 pixels
    Display aspect ratio           : 16:9
    Frame rate                     : 23.976 fps
    Color space                    : YUV
    Chroma subsampling             : 4:2:0
    Bit depth                      : 8 bits
    Scan type                      : Progressive
    Bits/(Pixel*Frame)             : 0.138
    Stream size                    : 4.64 GiB (80%)
    Title                          : made by z-man
    Writing library                : x264 core 108 r1790 8eaf8a6
    Encoding settings              : cabac=1 / ref=4 / deblock=1:-1:-1 / analyse=0x3:0x113 / me=umh / subme=7 / psy=1 / psy_rd=1.00:0.15 / mixed_ref=1 / me_range=16 / chroma_me=1 / trellis=1 / 8x8dct=1 / cqm=0 / deadzone=21,11 / fast_pskip=1 / chroma_qp_offset=-3 / threads=12 / sliced_threads=0 / nr=0 / decimate=1 / interlaced=0 / constrained_intra=0 / bframes=3 / b_pyramid=2 / b_adapt=1 / b_bias=0 / direct=3 / weightb=1 / open_gop=0 / weightp=2 / keyint=250 / keyint_min=23 / scenecut=40 / intra_refresh=0 / rc_lookahead=40 / rc=crf / mbtree=1 / crf=18.0 / qcomp=0.60 / qpmin=10 / qpmax=51 / qpstep=4 / ip_ratio=1.40 / aq=1:1.00
    Default                        : No
    Forced                         : No
    
    Audio
    ID                             : 2
    Format                         : DTS
    Format/Info                    : Digital Theater Systems
    Codec ID                       : A_DTS
    Duration                       : 1h 36mn
    Bit rate mode                  : Constant
    Bit rate                       : 1 510 Kbps
    Channel(s)                     : 6 channels
    Channel positions              : Front: L C R, Side: L R, LFE
    Sampling rate                  : 48.0 KHz
    Bit depth                      : 24 bits
    Compression mode               : Lossy
    Stream size                    : 1.02 GiB (18%)
    Language                       : English
    Default                        : Yes
    Forced                         : No
    
    [​IMG]
    Cảm ơn để thấy link!


    [HR][/HR]

    Còn tiếp ở dưới...
     
    Chỉnh sửa cuối: 17/9/12
  5. tham_tu

    tham_tu New Member

    Tham gia ngày:
    1/8/09
    Bài viết:
    347
    Đã được cảm ơn:
    2
    Điểm thành tích:
    0
    Tiền:
    214 CR
    Ðề: [Fshare] Chia sẽ phim Hd từ CafeHD

    có Fright Night 3D bản 1080 ko bạn
     
  6. meocon

    meocon Well-Known Member

    Tham gia ngày:
    16/7/09
    Bài viết:
    15,716
    Đã được cảm ơn:
    767
    Điểm thành tích:
    113
    Nơi ở:
    VN
    Tiền:
    5,903 CR
    Ðề: [Fshare] Chia sẽ phim Hd từ CafeHD

    Tks bạn chia sẽ .................
     
  7. ilosiz

    ilosiz New Member

    Tham gia ngày:
    28/8/12
    Bài viết:
    116
    Đã được cảm ơn:
    3
    Điểm thành tích:
    0
    Tiền:
    65 CR
    Re: Ðề: [Fshare] Chia sẽ phim Hd từ CafeHD

    bác bên đây có up link fshare ~ 50GB Hãy đăng nhập hoặc đăng ký để xem được links

    còn nhẹ hơn thì để mình check lại trên server và còn up nổi hay ko thì còn tùy vào fshare ... mấy hôm nay up chỉ toàn 1B/s nên cũng làm biếng up @_@
     
  8. tham_tu

    tham_tu New Member

    Tham gia ngày:
    1/8/09
    Bài viết:
    347
    Đã được cảm ơn:
    2
    Điểm thành tích:
    0
    Tiền:
    214 CR
    Ðề: Re: Ðề: [Fshare] Chia sẽ phim Hd từ CafeHD

    dung lượng còn lại ko nhiều nên ko dám chơi Bluray, chờ đợi bản nhẹ..... up buổi tối khuya chạy mượt hơn đó bạn ^^
     
  9. ilosiz

    ilosiz New Member

    Tham gia ngày:
    28/8/12
    Bài viết:
    116
    Đã được cảm ơn:
    3
    Điểm thành tích:
    0
    Tiền:
    65 CR
    The Final Destination (2009) 3D.720p.Blu-ray.DTS.x264-THUGLiNE
    [​IMG]

    Mã:
    http://www.imdb.com/title/tt1144884/
    
    Video
    ID                             : 1
    Format                         : AVC
    Format/Info                    : Advanced Video Codec
    Format profile                 : High@L4.1
    Format settings, CABAC         : Yes
    Format settings, ReFrames      : 5 frames
    Codec ID                       : V_MPEG4/ISO/AVC
    Duration                       : 1h 21mn
    Bit rate                       : 6 142 Kbps
    Width                          : 1 280 pixels
    Height                         : 544 pixels
    Display aspect ratio           : 2.35:1
    Frame rate                     : 23.976 fps
    Color space                    : YUV
    Chroma subsampling             : 4:2:0
    Bit depth                      : 8 bits
    Scan type                      : Progressive
    Bits/(Pixel*Frame)             : 0.368
    Stream size                    : 3.42 GiB (78%)
    Writing library                : x264 core 68 r1184 88b35c2
    Encoding settings              : cabac=1 / ref=5 / deblock=1:0:0 / analyse=0x3:0x113 / me=umh / subme=7 / psy_rd=1.0:0.0 / mixed_ref=1 / me_range=16 / chroma_me=1 / trellis=1 / 8x8dct=1 / cqm=0 / deadzone=21,11 / chroma_qp_offset=-2 / threads=12 / nr=0 / decimate=1 / mbaff=0 / bframes=3 / b_pyramid=1 / b_adapt=1 / b_bias=0 / direct=1 / wpredb=1 / keyint=240 / keyint_min=24 / scenecut=40 / rc=2pass / bitrate=6142 / ratetol=1.0 / qcomp=0.60 / qpmin=10 / qpmax=51 / qpstep=4 / cplxblur=20.0 / qblur=0.5 / ip_ratio=1.40 / pb_ratio=1.30 / aq=1:1.00
    Language                       : English
    Default                        : Yes
    Forced                         : No
    
    Audio
    ID                             : 2
    Format                         : DTS
    Format/Info                    : Digital Theater Systems
    Codec ID                       : A_DTS
    Duration                       : 1h 21mn
    Bit rate mode                  : Constant
    Bit rate                       : 1 510 Kbps
    Channel(s)                     : 6 channels
    Channel positions              : Front: L C R, Side: L R, LFE
    Sampling rate                  : 48.0 KHz
    Bit depth                      : 16 bits
    Compression mode               : Lossy
    Stream size                    : 883 MiB (20%)
    Language                       : English
    Default                        : Yes
    Forced                         : No
    
    [​IMG]
    Cảm ơn để thấy link!


    [HR][/HR]

    The.Smurfs.3D.2011.BluRay.720p.SBS.x264.DTS-HDChina

    [​IMG]


    Mã:
    http://www.imdb.com/title/tt0472181/
    
    Video
    ID                             : 1
    Format                         : AVC
    Format/Info                    : Advanced Video Codec
    Format profile                 : High@L4.1
    Format settings, CABAC         : Yes
    Format settings, ReFrames      : 4 frames
    Codec ID                       : V_MPEG4/ISO/AVC
    Duration                       : 1h 42mn
    Bit rate                       : 7 401 Kbps
    Width                          : 2 560 pixels
    Height                         : 720 pixels
    Display aspect ratio           : 3.556
    Frame rate                     : 23.976 fps
    Color space                    : YUV
    Chroma subsampling             : 4:2:0
    Bit depth                      : 8 bits
    Scan type                      : Progressive
    Bits/(Pixel*Frame)             : 0.167
    Stream size                    : 5.31 GiB (81%)
    Writing library                : x264 core 116 r2074 2641b9e
    Encoding settings              : cabac=1 / ref=4 / deblock=1:-1:-1 / analyse=0x3:0x133 / me=umh / subme=10 / psy=1 / psy_rd=0.20:0.00 / mixed_ref=1 / me_range=48 / chroma_me=1 / trellis=2 / 8x8dct=1 / cqm=0 / deadzone=21,11 / fast_pskip=0 / chroma_qp_offset=-1 / threads=12 / sliced_threads=0 / nr=0 / decimate=0 / interlaced=0 / bluray_compat=0 / constrained_intra=0 / bframes=12 / b_pyramid=2 / b_adapt=2 / b_bias=0 / direct=3 / weightb=1 / open_gop=0 / weightp=2 / keyint=360 / keyint_min=6 / scenecut=40 / intra_refresh=0 / rc_lookahead=120 / rc=crf / mbtree=1 / crf=18.0 / qcomp=0.65 / qpmin=0 / qpmax=69 / qpstep=4 / vbv_maxrate=50000 / vbv_bufsize=45000 / crf_max=0.0 / nal_hrd=none / frame-packing=3 / ip_ratio=1.40 / aq=2:0.80
    Default                        : No
    Forced                         : No
    
    Audio
    ID                             : 2
    Format                         : DTS
    Format/Info                    : Digital Theater Systems
    Codec ID                       : A_DTS
    Duration                       : 1h 42mn
    Bit rate mode                  : Constant
    Bit rate                       : 1 510 Kbps
    Channel(s)                     : 6 channels
    Channel positions              : Front: L C R, Side: L R, LFE
    Sampling rate                  : 48.0 KHz
    Bit depth                      : 24 bits
    Compression mode               : Lossy
    Stream size                    : 1.08 GiB (17%)
    Language                       : English
    Default                        : Yes
    Forced                         : No
    
    [​IMG]
    Cảm ơn để thấy link!


    [HR][/HR]

    Còn tiếp ở dưới...
     
  10. ilosiz

    ilosiz New Member

    Tham gia ngày:
    28/8/12
    Bài viết:
    116
    Đã được cảm ơn:
    3
    Điểm thành tích:
    0
    Tiền:
    65 CR
    Tangled (2010) 3D 1080p 3DBD DTS x264 Half SBS-z-man - Người Đẹp Tóc Mây (Thuyết Minh)
    [​IMG]

    Mã:
    www.imdb.com/title/tt0398286/
    
    Video
    ID                             : 1
    Format                         : AVC
    Format/Info                    : Advanced Video Codec
    Format profile                 : High@L4.1
    Format settings, CABAC         : Yes
    Format settings, ReFrames      : 4 frames
    Codec ID                       : V_MPEG4/ISO/AVC
    Duration                       : 1h 40mn
    Bit rate                       : 6 785 Kbps
    Width                          : 1 920 pixels
    Height                         : 1 080 pixels
    Display aspect ratio           : 16:9
    Frame rate                     : 23.976 fps
    Color space                    : YUV
    Chroma subsampling             : 4:2:0
    Bit depth                      : 8 bits
    Scan type                      : Progressive
    Bits/(Pixel*Frame)             : 0.136
    Stream size                    : 4.75 GiB (74%)
    Title                          : Tangled.3D.2010.ENG.DTS.1080p.3DBD.x264.half.SBS.z-man
    Writing library                : x264 core 114 r1913 5fd3dce
    Encoding settings              : cabac=1 / ref=4 / deblock=1:-1:-1 / analyse=0x3:0x113 / me=umh / subme=7 / psy=1 / psy_rd=1.00:0.15 / mixed_ref=1 / me_range=16 / chroma_me=1 / trellis=1 / 8x8dct=1 / cqm=0 / deadzone=21,11 / fast_pskip=1 / chroma_qp_offset=-3 / threads=18 / sliced_threads=0 / nr=0 / decimate=1 / interlaced=0 / constrained_intra=0 / bframes=3 / b_pyramid=2 / b_adapt=1 / b_bias=0 / direct=3 / weightb=1 / open_gop=0 / weightp=2 / keyint=250 / keyint_min=23 / scenecut=40 / intra_refresh=0 / rc_lookahead=40 / rc=crf / mbtree=1 / crf=18.0 / qcomp=0.60 / qpmin=10 / qpmax=69 / qpstep=4 / ip_ratio=1.40 / aq=1:1.00
    Default                        : No
    Forced                         : No
    
    Audio #1
    ID                             : 2
    Format                         : AC-3
    Format/Info                    : Audio Coding 3
    Mode extension                 : CM (complete main)
    Format settings, Endianness    : Big
    Codec ID                       : A_AC3
    Duration                       : 1h 40mn
    Bit rate mode                  : Constant
    Bit rate                       : 640 Kbps
    Channel(s)                     : 6 channels
    Channel positions              : Front: L C R, Side: L R, LFE
    Sampling rate                  : 48.0 KHz
    Bit depth                      : 16 bits
    Compression mode               : Lossy
    Stream size                    : 459 MiB (7%)
    Title                          : Thuyết Minh 5.1
    Language                       : Vietnamese
    Default                        : Yes
    Forced                         : No
    
    Audio #2
    ID                             : 3
    Format                         : DTS
    Format/Info                    : Digital Theater Systems
    Codec ID                       : A_DTS
    Duration                       : 1h 40mn
    Bit rate mode                  : Constant
    Bit rate                       : 1 510 Kbps
    Channel(s)                     : 6 channels
    Channel positions              : Front: L C R, Side: L R, LFE
    Sampling rate                  : 48.0 KHz
    Bit depth                      : 24 bits
    Compression mode               : Lossy
    Stream size                    : 1.06 GiB (17%)
    Language                       : English
    Default                        : No
    Forced                         : No
    
    [​IMG]
    Cảm ơn để thấy link!


    [HR][/HR]

    The.Simpsons.20th.Anniversary.Special.in.3D.On.Ice.REPACK.720p.HDTV.x264-2HD

    [​IMG]


    Mã:
    www.imdb.com/title/tt1572507/
    
    Video
    ID                             : 1
    Format                         : AVC
    Format/Info                    : Advanced Video Codec
    Format profile                 : High@L3.1
    Format settings, CABAC         : Yes
    Format settings, ReFrames      : 3 frames
    Codec ID                       : V_MPEG4/ISO/AVC
    Duration                       : 42mn 14s
    Bit rate                       : 3 252 Kbps
    Width                          : 1 280 pixels
    Height                         : 720 pixels
    Display aspect ratio           : 16:9
    Frame rate                     : 23.976 fps
    Color space                    : YUV
    Chroma subsampling             : 4:2:0
    Bit depth                      : 8 bits
    Scan type                      : Progressive
    Bits/(Pixel*Frame)             : 0.147
    Stream size                    : 961 MiB (86%)
    Writing library                : x264 core 70 r1204 3b047a2
    Encoding settings              : cabac=1 / ref=3 / deblock=1:0:0 / analyse=0x3:0x113 / me=hex / subme=6 / psy=1 / psy_rd=1.0:0.0 / mixed_ref=1 / me_range=16 / chroma_me=1 / trellis=1 / 8x8dct=1 / cqm=0 / deadzone=21,11 / chroma_qp_offset=-2 / threads=12 / nr=0 / decimate=1 / mbaff=0 / bframes=3 / b_pyramid=1 / b_adapt=1 / b_bias=0 / direct=1 / wpredb=1 / keyint=240 / keyint_min=24 / scenecut=40 / rc=2pass / mbtree=0 / bitrate=3252 / ratetol=1.0 / qcomp=0.60 / qpmin=10 / qpmax=51 / qpstep=4 / cplxblur=20.0 / qblur=0.5 / ip_ratio=1.40 / pb_ratio=1.30 / aq=1:1.00
    Language                       : English
    Default                        : Yes
    Forced                         : No
    
    Audio
    ID                             : 2
    Format                         : AC-3
    Format/Info                    : Audio Coding 3
    Mode extension                 : CM (complete main)
    Format settings, Endianness    : Big
    Codec ID                       : A_AC3
    Duration                       : 42mn 14s
    Bit rate mode                  : Constant
    Bit rate                       : 448 Kbps
    Channel(s)                     : 6 channels
    Channel positions              : Front: L C R, Side: L R, LFE
    Sampling rate                  : 48.0 KHz
    Bit depth                      : 16 bits
    Compression mode               : Lossy
    Stream size                    : 135 MiB (12%)
    Default                        : Yes
    Forced                         : No
    
    [​IMG]
    Cảm ơn để thấy link!


    [HR][/HR]

    The.Polar.Express.2004.720p.BluRay.x264-CiNEFiLE(Film 3D)

    [​IMG]


    Mã:
    www.imdb.com/title/tt0338348/
    
    Video
    ID                             : 1
    Format                         : AVC
    Format/Info                    : Advanced Video Codec
    Format profile                 : High@L3.1
    Format settings, CABAC         : Yes
    Format settings, ReFrames      : 5 frames
    Codec ID                       : V_MPEG4/ISO/AVC
    Duration                       : 1h 39mn
    Bit rate                       : 2 486 Kbps
    Width                          : 1 280 pixels
    Height                         : 544 pixels
    Display aspect ratio           : 2.35:1
    Frame rate                     : 23.976 fps
    Color space                    : YUV
    Chroma subsampling             : 4:2:0
    Bit depth                      : 8 bits
    Scan type                      : Progressive
    Bits/(Pixel*Frame)             : 0.149
    Stream size                    : 1.69 GiB (78%)
    Writing library                : x264 core 65 r1016 dbc5ef0
    Encoding settings              : cabac=1 / ref=5 / deblock=1:0:0 / analyse=0x3:0x113 / me=umh / subme=7 / psy_rd=1.0:0.0 / mixed_ref=1 / me_range=16 / chroma_me=1 / trellis=1 / 8x8dct=1 / cqm=0 / deadzone=21,11 / chroma_qp_offset=-2 / threads=6 / nr=0 / decimate=1 / mbaff=0 / bframes=3 / b_pyramid=1 / b_adapt=1 / b_bias=0 / direct=1 / wpredb=1 / keyint=250 / keyint_min=25 / scenecut=40(pre) / rc=2pass / bitrate=2486 / ratetol=1.0 / qcomp=0.60 / qpmin=10 / qpmax=51 / qpstep=4 / cplxblur=20.0 / qblur=0.5 / ip_ratio=1.40 / pb_ratio=1.30 / aq=1:1.00
    Language                       : English
    Default                        : Yes
    Forced                         : No
    
    Audio
    ID                             : 2
    Format                         : AC-3
    Format/Info                    : Audio Coding 3
    Mode extension                 : CM (complete main)
    Format settings, Endianness    : Big
    Codec ID                       : A_AC3
    Duration                       : 1h 39mn
    Bit rate mode                  : Constant
    Bit rate                       : 640 Kbps
    Channel(s)                     : 6 channels
    Channel positions              : Front: L C R, Side: L R, LFE
    Sampling rate                  : 48.0 KHz
    Bit depth                      : 16 bits
    Compression mode               : Lossy
    Stream size                    : 457 MiB (20%)
    Language                       : English
    Default                        : Yes
    Forced                         : No
    
    [​IMG]
    Cảm ơn để thấy link!


    [HR][/HR]
     
  11. tth1982

    tth1982 New Member

    Tham gia ngày:
    1/3/12
    Bài viết:
    23
    Đã được cảm ơn:
    0
    Điểm thành tích:
    0
    Tiền:
    128 CR
    Ðề: Re: [Fshare] Chia sẽ phim Hd từ CafeHD

    upppppppppppppppppppppppp
     
  12. tth1982

    tth1982 New Member

    Tham gia ngày:
    1/3/12
    Bài viết:
    23
    Đã được cảm ơn:
    0
    Điểm thành tích:
    0
    Tiền:
    128 CR
    Ðề: Re: [Fshare] Chia sẽ phim Hd từ CafeHD

    upppppppppppppppp
     
  13. songlaidi

    songlaidi New Member

    Tham gia ngày:
    1/11/10
    Bài viết:
    148
    Đã được cảm ơn:
    1
    Điểm thành tích:
    0
    Tiền:
    245 CR
    Ðề: [Fshare] Chia sẽ phim Hd từ CafeHD

    sao nó nhẹ thế bác toàn hàng 5G liệu xem có ổn không
     
  14. lykimlong

    lykimlong Member

    Tham gia ngày:
    16/4/12
    Bài viết:
    447
    Đã được cảm ơn:
    1
    Điểm thành tích:
    18
    Tiền:
    444 CR
    Ðề: Re: [Fshare] Chia sẽ phim Hd từ CafeHD

    tàn là phim cũ ko pác ui.pac có phim mới up cho a e xem hàng nào!
     
  15. maxlink

    maxlink New Member

    Tham gia ngày:
    18/2/09
    Bài viết:
    33
    Đã được cảm ơn:
    1
    Điểm thành tích:
    0
    Nghề nghiệp:
    SV
    Nơi ở:
    Cần Thơ
    Web:
    Tiền:
    26 CR
    Ðề: [Fshare] Chia sẽ phim Hd từ CafeHD

    Bugs.3D.2003.720p.HDDVD.x264-HDL và Shark 3D link bị xóa mất tiu roài !!!
     
  16. maxlink

    maxlink New Member

    Tham gia ngày:
    18/2/09
    Bài viết:
    33
    Đã được cảm ơn:
    1
    Điểm thành tích:
    0
    Nghề nghiệp:
    SV
    Nơi ở:
    Cần Thơ
    Web:
    Tiền:
    26 CR
    Ðề: [Fshare] Chia sẽ phim Hd từ CafeHD

    Bản này là 2D , ko phải 3D nhé bà con ! Kím bản này 3D 1280 x 720 khó quá ! hjx
     
  17. xuanphong1205

    xuanphong1205 Member

    Tham gia ngày:
    4/12/09
    Bài viết:
    85
    Đã được cảm ơn:
    0
    Điểm thành tích:
    6
    Tiền:
    283 CR
    Ðề: Re: [Fshare] Chia sẽ phim Hd từ CafeHD

    The.Polar.Express.2004.720p.BluRay.x264-CiNEFiLE(Film 3D)

    [​IMG]

    e kiếm trên diễn đàn bản hơn 6gb ko để ý down về thì ra là bản xanh đỏ.
    bác nào có phim này dạng sbs hoặc ou ko? cho e xin với. cảm ơn nhiều!
     
  18. trungng

    trungng Member

    Tham gia ngày:
    10/12/09
    Bài viết:
    281
    Đã được cảm ơn:
    2
    Điểm thành tích:
    18
    Tiền:
    755 CR
    cảm ơn bác chủ nhiều.
     
  19. tritqvn

    tritqvn New Member

    Tham gia ngày:
    6/5/10
    Bài viết:
    2
    Đã được cảm ơn:
    1
    Điểm thành tích:
    3
    Tiền:
    2 CR
    Ðề: Re: [Fshare] Chia sẽ phim Hd từ CafeHD

    Uh, tuyet cu meo day

     

Chia sẻ trang này