[Fshare] Fast and Furious Presents Hobbs and Shaw 2019 1080p HC HDRip X264-EVO

Thảo luận trong 'WEB-DL, HDTV' bắt đầu bởi Anh YAM, 19/9/19.

  1. Anh YAM

    Anh YAM Well-Known Member

    Tham gia ngày:
    5/1/19
    Bài viết:
    370
    Đã được cảm ơn:
    10,051
    Điểm thành tích:
    93
    Giới tính:
    Nam
    Web:
    Tiền:
    554 CR
    Fast and Furious Presents Hobbs and Shaw 2019 1080p HC HDRip X264-EVO

    FORMAT: MKV | SIZE: 3.69 GB



    [​IMG]

    [​IMG]


    Plot
    Fast And Furious Presents: Hobbs & Shaw là phần spin-off của cả series, xoay quanh Luke Hobbs và Deckard Shaw, những nhân vật được giới thiệu trong loạt phim chính. Với sự tham gia của Dwayne Johnson và Jason Statham trong vai Hobbs và Shaw, bộ phim theo chân hai cặp đôi vốn đối đầu nhau buộc phải hợp tác để chống lại một mối đe dọa thế giới với một loại virus chết người.

    Trailer



    Review

    ------------------------------------------------

    Media Info [​IMG]

    General
    Format : Matroska
    Format version : Version 4
    File size : 3.70 GiB
    Duration : 2 h 9 min
    Overall bit rate : 4 097 kb/s

    Video
    ID : 1
    Format : AVC
    Format/Info : Advanced Video Codec
    Format profile : High@L4.1
    Format settings : CABAC / 4 Ref Frames
    Format settings, CABAC : Yes
    Format settings, Reference frames : 4 frames
    Codec ID : V_MPEG4/ISO/AVC
    Duration : 2 h 9 min
    Bit rate : 3 710 kb/s
    Width : 1 920 pixels
    Height : 800 pixels
    Display aspect ratio : 2.40:1
    Frame rate mode : Constant
    Frame rate : 58.823 FPS
    Color space : YUV
    Chroma subsampling : 4:2:0
    Bit depth : 8 bits
    Scan type : Progressive
    Bits/(Pixel*Frame) : 0.041
    Stream size : 3.35 GiB (91%)
    Default : Yes
    Forced : No
    Color range : Limited
    Color primaries : BT.709
    Transfer characteristics : BT.709
    Matrix coefficients : BT.709

    Audio
    ID : 2
    Format : AC-3
    Format/Info : Audio Coding 3
    Commercial name : Dolby Digital
    Codec ID : A_AC3
    Duration : 2 h 9 min
    Bit rate mode : Constant
    Bit rate : 384 kb/s
    Channel(s) : 2 channels
    Channel layout : L R
    Sampling rate : 48.0 kHz
    Frame rate : 31.250 FPS (1536 SPF)
    Compression mode : Lossy
    Delay relative to video : 61 ms
    Stream size : 355 MiB (9%)
    Title : Stereo
    Language : English
    Service kind : Complete Main
    Default : Yes
    Forced : No






    ------------------------------------------------

    Screenshot

    http://imgbox.com/g/HvrwzWRAmU

    [​IMG]

    [​IMG]

    [​IMG]

    [​IMG]

    [​IMG]

    [​IMG]

    [​IMG]

    [​IMG]

    [​IMG]


    [​IMG] Download:

    FSHARE:

    Nhấn nút Cảm ơn (dưới chân bài) để thấy link!

    Nhấn nút Cảm ơn (dưới chân bài) để thấy link!

    SUB: https://subscene.com/subtitles/fast-and-furious-presents-hobbs-and-shaw/vietnamese

    ------------------------------------------------------------------------
    [ISO] Spider.Man.Homecoming.2017.BluRay.1080p.AVC.DTS-HD.MA5.1-MTeam

    -----------------------------------------
    [NON HDR] Spider-Man: Far From Home 2019 2160p WEB-DL DD+5 1 HEVC-DEFLATE

    [HDR] Spider-Man: Far From Home 2019 2160p WEB-DL DD+5 1 HEVC-DEFLATE

    Spider-Man: Far from Home 2019 1080p AMZN WEB-DL DD+5.1 H.264-NTG

    Spider-Man Far From Home 2019 1080p BluRay DTS x264-SPARKS
     
    #1 +2 CR
  2. hoainv213

    hoainv213 Member

    Tham gia ngày:
    5/4/15
    Bài viết:
    33
    Đã được cảm ơn:
    12
    Điểm thành tích:
    8
    Tiền:
    87 CR
    Vẫn chưa có sub
     
    kevinmanhn, tèo94, tahandoi and 7 others like this.
  3. le cong toan

    le cong toan New Member

    Tham gia ngày:
    24/9/19
    Bài viết:
    3
    Đã được cảm ơn:
    0
    Điểm thành tích:
    1
    Giới tính:
    Nam
    Tiền:
    3 CR
    nút cảm ơn đéo thấy
     
  4. giangkame

    giangkame Member

    Tham gia ngày:
    19/7/10
    Bài viết:
    23
    Đã được cảm ơn:
    11
    Điểm thành tích:
    8
    Giới tính:
    Nam
    Nghề nghiệp:
    Nhân viên
    Nơi ở:
    Hà nội
    Tiền:
    643 CR
    Many Thanks
     
  5. danhngo

    danhngo New Member

    Tham gia ngày:
    28/10/15
    Bài viết:
    1
    Đã được cảm ơn:
    0
    Điểm thành tích:
    1
    Tiền:
    4 CR
    Có phần phụ tiếng Hàn khó xem quá
     

Chia sẻ trang này