[Fshare] Full Match một số trận bóng hay mà mình có

Thảo luận trong 'Kênh thể thao HD' bắt đầu bởi vipbkgz, 28/1/15.

  1. gladiator13579

    gladiator13579 Member

    Tham gia ngày:
    14/10/17
    Bài viết:
    89
    Đã được cảm ơn:
    34
    Điểm thành tích:
    18
    Tiền:
    87 CR
    host baidu này mình đang down bằng netdisk của nó mà tốc độ toàn 5Kb/s, chán quá.
     
  2. quan2811

    quan2811 Member

    Tham gia ngày:
    9/9/10
    Bài viết:
    38
    Đã được cảm ơn:
    0
    Điểm thành tích:
    6
    Tiền:
    190 CR
    Có trận chung kết ko bác? Mặc dù thua nhưng mà bàn của Quang Hải quá đẹp, nhiều khả năng sẽ là bàn thắng đẹp nhất giải luôn. Mình muốn lưu lại làm kỷ niệm. Mong ae ai có thì share với. Thanks!
     
  3. kennyminh

    kennyminh Well-Known Member

    Tham gia ngày:
    16/3/09
    Bài viết:
    3,252
    Đã được cảm ơn:
    20,545
    Điểm thành tích:
    113
    Giới tính:
    Nam
    Nơi ở:
    Vietnam
    Tiền:
    2,119 CR
    [​IMG]
    [​IMG]
    [​IMG]
    Mã:
    General
    ID                             : 8900 (0x22C4)
    Complete name                  : G:\SNG\20180127 AFC U23 Final VIETNAM vs UZBEKISTAN SNG 1080i.ts
    Format                         : MPEG-TS
    File size                      : 30.6 GiB
    Duration                       : 4h 42mn
    Overall bit rate mode          : Variable
    Overall bit rate               : 15.5 Mbps
    
    Video
    ID                             : 33 (0x21)
    Menu ID                        : 1 (0x1)
    Format                         : AVC
    Format/Info                    : Advanced Video Codec
    Format profile                 : High@L4
    Format settings, CABAC         : Yes
    Format settings, ReFrames      : 4 frames
    Codec ID                       : 27
    Duration                       : 4h 42mn
    Bit rate                       : 14.0 Mbps
    Width                          : 1 920 pixels
    Height                         : 1 080 pixels
    Display aspect ratio           : 16:9
    Frame rate                     : 25.000 fps
    Color space                    : YUV
    Chroma subsampling             : 4:2:0
    Bit depth                      : 8 bits
    Scan type                      : Interlaced
    Scan type, store method        : Separated fields
    Scan order                     : Top Field First
    Bits/(Pixel*Frame)             : 0.269
    Stream size                    : 27.6 GiB (90%)
    Color range                    : Limited
    Color primaries                : BT.709
    Transfer characteristics       : BT.709
    Matrix coefficients            : BT.709
    
    Audio #1
    ID                             : 34 (0x22)
    Menu ID                        : 1 (0x1)
    Format                         : MPEG Audio
    Format version                 : Version 1
    Format profile                 : Layer 2
    Codec ID                       : 3
    Duration                       : 4h 42mn
    Bit rate mode                  : Constant
    Bit rate                       : 384 Kbps
    Channel(s)                     : 2 channels
    Sampling rate                  : 48.0 KHz
    Compression mode               : Lossy
    Delay relative to video        : -691ms
    Stream size                    : 777 MiB (2%)
    Language                       : English
    
    Audio #2
    ID                             : 35 (0x23)
    Menu ID                        : 1 (0x1)
    Format                         : MPEG Audio
    Format version                 : Version 1
    Format profile                 : Layer 2
    Codec ID                       : 3
    Duration                       : 4h 42mn
    Bit rate mode                  : Constant
    Bit rate                       : 384 Kbps
    Channel(s)                     : 2 channels
    Sampling rate                  : 48.0 KHz
    Compression mode               : Lossy
    Delay relative to video        : -691ms
    Stream size                    : 777 MiB (2%)
    Language                       : English
    
    Menu
    ID                             : 32 (0x20)
    Menu ID                        : 1 (0x1)
    Duration                       : 4h 42mn
    List                           : 33 (0x21) (AVC) / 34 (0x22) (MPEG Audio, English) / 35 (0x23) (MPEG Audio, English)
    Language                       :  / English / English
    Maximum bit rate               : 4146400
    Nhấn nút Cảm ơn (dưới chân bài) để thấy link!
     
    Chỉnh sửa cuối: 10/2/18
  4. kennyminh

    kennyminh Well-Known Member

    Tham gia ngày:
    16/3/09
    Bài viết:
    3,252
    Đã được cảm ơn:
    20,545
    Điểm thành tích:
    113
    Giới tính:
    Nam
    Nơi ở:
    Vietnam
    Tiền:
    2,119 CR
    @quan2811 đã có link trận chung kết
     
  5. kennyminh

    kennyminh Well-Known Member

    Tham gia ngày:
    16/3/09
    Bài viết:
    3,252
    Đã được cảm ơn:
    20,545
    Điểm thành tích:
    113
    Giới tính:
    Nam
    Nơi ở:
    Vietnam
    Tiền:
    2,119 CR
    [​IMG]
    [​IMG]
    Mã:
    General
    ID                             : 8900 (0x22C4)
    Complete name                  : D:\SNG\20180111 AFC U23 Group D KOREA REPUBLIC vs VIETNAM SNG 1080i.ts
    Format                         : MPEG-TS
    File size                      : 16.1 GiB
    Duration                       : 2h 28mn
    Overall bit rate mode          : Variable
    Overall bit rate               : 15.5 Mbps
    
    Video
    ID                             : 33 (0x21)
    Menu ID                        : 1 (0x1)
    Format                         : AVC
    Format/Info                    : Advanced Video Codec
    Format profile                 : High@L4
    Format settings, CABAC         : Yes
    Format settings, ReFrames      : 2 frames
    Codec ID                       : 27
    Duration                       : 2h 28mn
    Bit rate                       : 14.2 Mbps
    Width                          : 1 920 pixels
    Height                         : 1 080 pixels
    Display aspect ratio           : 16:9
    Frame rate                     : 25.000 fps
    Color space                    : YUV
    Chroma subsampling             : 4:2:0
    Bit depth                      : 8 bits
    Scan type                      : Interlaced
    Scan type, store method        : Separated fields
    Scan order                     : Top Field First
    Bits/(Pixel*Frame)             : 0.275
    Stream size                    : 14.8 GiB (92%)
    
    Audio #1
    ID                             : 34 (0x22)
    Menu ID                        : 1 (0x1)
    Format                         : MPEG Audio
    Format version                 : Version 1
    Format profile                 : Layer 2
    Codec ID                       : 4
    Duration                       : 2h 28mn
    Bit rate mode                  : Constant
    Bit rate                       : 256 Kbps
    Channel(s)                     : 2 channels
    Sampling rate                  : 48.0 KHz
    Compression mode               : Lossy
    Delay relative to video        : -336ms
    Stream size                    : 272 MiB (2%)
    
    Audio #2
    ID                             : 35 (0x23)
    Menu ID                        : 1 (0x1)
    Format                         : MPEG Audio
    Format version                 : Version 1
    Format profile                 : Layer 2
    Codec ID                       : 4
    Duration                       : 2h 28mn
    Bit rate mode                  : Constant
    Bit rate                       : 256 Kbps
    Channel(s)                     : 2 channels
    Sampling rate                  : 48.0 KHz
    Compression mode               : Lossy
    Delay relative to video        : -12ms
    Stream size                    : 271 MiB (2%)
    Nhấn nút Cảm ơn (dưới chân bài) để thấy link!
     
    Chỉnh sửa cuối: 10/2/18
    Ylang1030, hdbvg, playat3am and 10 others like this.
  6. kennyminh

    kennyminh Well-Known Member

    Tham gia ngày:
    16/3/09
    Bài viết:
    3,252
    Đã được cảm ơn:
    20,545
    Điểm thành tích:
    113
    Giới tính:
    Nam
    Nơi ở:
    Vietnam
    Tiền:
    2,119 CR
    [​IMG]
    [​IMG]
    Mã:
    General
    ID  : 8900 (0x22C4)
    Complete name  : D:\SNG\20180114 AFC U23 Group D VIETNAM vs AUSTRALIA SNG 1080i.ts
    Format  : MPEG-TS
    File size  : 17.5 GiB
    Duration  : 2h 42mn
    Overall bit rate mode  : Variable
    Overall bit rate  : 15.5 Mbps
    
    Video
    ID  : 33 (0x21)
    Menu ID  : 1 (0x1)
    Format  : AVC
    Format/Info  : Advanced Video Codec
    Format profile  : High@L4
    Format settings, CABAC  : Yes
    Format settings, ReFrames  : 2 frames
    Codec ID  : 27
    Duration  : 2h 42mn
    Bit rate  : 14.2 Mbps
    Width  : 1 920 pixels
    Height  : 1 080 pixels
    Display aspect ratio  : 16:9
    Frame rate  : 25.000 fps
    Color space  : YUV
    Chroma subsampling  : 4:2:0
    Bit depth  : 8 bits
    Scan type  : Interlaced
    Scan type, store method  : Separated fields
    Scan order  : Top Field First
    Bits/(Pixel*Frame)  : 0.274
    Stream size  : 16.1 GiB (92%)
    
    Audio #1
    ID  : 34 (0x22)
    Menu ID  : 1 (0x1)
    Format  : MPEG Audio
    Format version  : Version 1
    Format profile  : Layer 2
    Codec ID  : 4
    Duration  : 2h 42mn
    Bit rate mode  : Constant
    Bit rate  : 256 Kbps
    Channel(s)  : 2 channels
    Sampling rate  : 48.0 KHz
    Compression mode  : Lossy
    Delay relative to video  : -312ms
    Stream size  : 297 MiB (2%)
    
    Audio #2
    ID  : 35 (0x23)
    Menu ID  : 1 (0x1)
    Format  : MPEG Audio
    Format version  : Version 1
    Format profile  : Layer 2
    Codec ID  : 4
    Duration  : 2h 42mn
    Bit rate mode  : Constant
    Bit rate  : 256 Kbps
    Channel(s)  : 2 channels
    Sampling rate  : 48.0 KHz
    Compression mode  : Lossy
    Delay relative to video  : 16ms
    Stream size  : 297 MiB (2%)
    Nhấn nút Cảm ơn (dưới chân bài) để thấy link!
     
    Chỉnh sửa cuối: 10/2/18
    Ylang1030, hdbvg, playat3am and 6 others like this.
  7. FM5

    FM5 Member

    Tham gia ngày:
    23/12/09
    Bài viết:
    30
    Đã được cảm ơn:
    5
    Điểm thành tích:
    8
    Tiền:
    526 CR
    up len fshare di bac
     
    #127 +1 CR
  8. Alalala

    Alalala Member

    Tham gia ngày:
    9/2/14
    Bài viết:
    291
    Đã được cảm ơn:
    83
    Điểm thành tích:
    18
    Tiền:
    1,046 CR
    rảnh rồi xin link full hd trận lượt về vời chè hôm rồi nha
     
  9. quanphamkt

    quanphamkt Active Member

    Tham gia ngày:
    9/7/18
    Bài viết:
    69
    Đã được cảm ơn:
    206
    Điểm thành tích:
    33
    Giới tính:
    Nam
    Tiền:
    82 CR
    tại sao các bác ko upload lên onedrive, drivegoogle hay baidu cloud ??? bảo đảm ko die, cứ up lên mấy cái fshare này mất công, die hết
     
  10. Trinh Ngoc Hoang

    Trinh Ngoc Hoang New Member

    Tham gia ngày:
    15/10/17
    Bài viết:
    1
    Đã được cảm ơn:
    0
    Điểm thành tích:
    1
    Giới tính:
    Nam
    Tiền:
    1 CR
    Cho mình hỏi có link down trận Manchester United vs Ac Milan 4-0 cúp C1 năm 2010 không?
     
  11. jaydennguyen188

    jaydennguyen188 New Member

    Tham gia ngày:
    12/1/18
    Bài viết:
    8
    Đã được cảm ơn:
    4
    Điểm thành tích:
    3
    Giới tính:
    Nam
    Tiền:
    12 CR
    thanks bạn đã chia sẽ
     
  12. tuan0105

    tuan0105 Member

    Tham gia ngày:
    20/8/18
    Bài viết:
    23
    Đã được cảm ơn:
    1
    Điểm thành tích:
    8
    Tiền:
    36 CR
    cám ơn chủ topic!
     
  13. nguyenthangubqn

    nguyenthangubqn New Member

    Tham gia ngày:
    14/9/18
    Bài viết:
    21
    Đã được cảm ơn:
    5
    Điểm thành tích:
    3
    Giới tính:
    Nam
    Tiền:
    22 CR
    Cảm ơn chủ top. Chủ đề hay như này mà ít ai đăng bài nhỉ
     
  14. tinbongda88

    tinbongda88 New Member

    Tham gia ngày:
    16/10/18
    Bài viết:
    16
    Đã được cảm ơn:
    0
    Điểm thành tích:
    1
    Giới tính:
    Nam
    Web:
    Tiền:
    21 CR
    những trận đấu hay khó lòng bỏ qua
     
  15. adm820

    adm820 Uploader

    Tham gia ngày:
    1/12/10
    Bài viết:
    5,193
    Đã được cảm ơn:
    112,904
    Điểm thành tích:
    113
    Giới tính:
    Nam
    Tiền:
    6,330 CR
    [​IMG]

    UEFA.Champions.League.Group.B.Tottenham.Hotspur.Vs.Barcelona.20181004.FEED.1080i.H264 HDCTV.ts


    ai cần bản này ko

    upload_2018-10-16_11-8-27.png
     
    thangba81 cảm ơn bài này.
  16. adm820

    adm820 Uploader

    Tham gia ngày:
    1/12/10
    Bài viết:
    5,193
    Đã được cảm ơn:
    112,904
    Điểm thành tích:
    113
    Giới tính:
    Nam
    Tiền:
    6,330 CR
    【文件名称】...... UEFA Champions League Final Real Madrid VS Liverpool 20180527 FEED 1080i H264-HDCTV
    【日  期】...... 2018-05-27
    【时  长】...... 04h:27m:27s
    【体  积】...... 76.4 GiB
    【帧  率】...... 25.000 fps
    【视频编码】...... H.264_L4 @ 33.9 Mbps
    【音频编码】...... MPEG Audio 2.0 @ 384 Kbps
    【音频编码】...... MPEG Audio 2.0 @ 384 Kbps
    【音频编码】...... Dolby E 5.1 @
    【音频编码】...... Dolby E 2.0 @
    【视频尺寸】...... 1920x1080 (16:9)
    【视频格式】...... MPEG-TS
    【字  幕】...... 内嵌简体中文字幕
    【制作团队】...... HDCTV


    chung kết UEFA Champions League sóng feed nặng quá , gồm cả phỏng vấn vớ vẩn nữa
     
  17. adm820

    adm820 Uploader

    Tham gia ngày:
    1/12/10
    Bài viết:
    5,193
    Đã được cảm ơn:
    112,904
    Điểm thành tích:
    113
    Giới tính:
    Nam
    Tiền:
    6,330 CR
    Tín hiệu gốc , các trận 1/16 ; 1/8 bán /chung kết , hạng 3 hồi asiad đây, đang xem nhất chắc là trận Hàn Quốc vs Uzb vòng tứ kết .....

    upload_2018-10-16_11-15-57.png
     
  18. fun88us

    fun88us New Member

    Tham gia ngày:
    13/10/18
    Bài viết:
    21
    Đã được cảm ơn:
    0
    Điểm thành tích:
    1
    Giới tính:
    Nam
    Web:
    Tiền:
    28 CR
    sao bạn lưu được mấy cái này thế,dùng quay phim màn hình hay công cụ gì
     
  19. fun88us

    fun88us New Member

    Tham gia ngày:
    13/10/18
    Bài viết:
    21
    Đã được cảm ơn:
    0
    Điểm thành tích:
    1
    Giới tính:
    Nam
    Web:
    Tiền:
    28 CR
    sao bác lưu lại được mấy trận đấu này vậy,mình đang cần tìm hiểu
     
  20. bongda365kq

    bongda365kq New Member

    Tham gia ngày:
    12/10/18
    Bài viết:
    4
    Đã được cảm ơn:
    0
    Điểm thành tích:
    1
    Giới tính:
    Nam
    Nghề nghiệp:
    IT
    Nơi ở:
    Ha Noi
    Web:
    Tiền:
    5 CR
    Cảm ơn nhé. Mình thích nhất là trận Real gặp Aletico năm 2016. Hay
     

Chia sẻ trang này