[ Fshare l Torrent] Africa's Super Seven 2008 ViE 1080p BluRay DTS x264-CHD ~ Thuyết Minh

Thảo luận trong 'Phim Tài Liệu - Thuyết Minh' bắt đầu bởi cuong_7694, 9/3/20.

  1. cuong_7694

    cuong_7694 Well-Known Member

    Tham gia ngày:
    8/9/12
    Bài viết:
    1,529
    Đã được cảm ơn:
    811
    Nghề nghiệp:
    Sinh vien
    Nơi ở:
    ha noi
    [​IMG]





    Vùng thảo nguyên Châu Phi được cai quản bởi 7 loài vật hùng mạnh nhất , chúng thường xuyên chạm trán với nhau vì lý do sinh tồn, bộ phim giới thiệu cho chúng ta biết về 7 loài mạnh nhất tại thảo nguyên Châu Phi





    Complete name : Africas.Super.Seven.2008.ViE.1080p.BluRay.DTS.x264-CHD
    Format : Matroska
    Format version : Version 2
    File size : 4.31 GiB

    Duration : 52 min 33 s

    Overall bit rate : 11.8 Mb/s
    Movie name : First.Life.2010.Ep02.Conquest.1080p.Bluray.x264-KhoHD
    Encoded date : UTC 2020-03-06 12:49:17
    Writing application : mkvmerge v5.5.0 ('Healer') built on Apr 6 2012 21:43:24
    Writing library : libebml v1.2.3 + libmatroska v1.3.0


    Video
    ID : 2
    Format : AVC
    Format/Info : Advanced Video Codec
    Format profile : High@L4.1
    Format settings, CABAC : Yes
    Format settings, RefFrames : 4 frames
    Muxing mode : Header stripping
    Codec ID : V_MPEG4/ISO/AVC
    Duration : 52 min 33 s
    Bit rate : 10.7 Mb/s
    Width : 1 920 pixels
    Height : 1 080 pixels
    Display aspect ratio : 16:9
    Frame rate mode : Constant
    Frame rate : 24.000 FPS
    Color space : YUV
    Chroma subsampling : 4:2:0
    Bit depth : 8 bits
    Scan type : Progressive
    Bits/(Pixel*Frame) : 0.216
    Stream size : 3.85 GiB (89%)
    Title : Africas.Super.Seven.2008.Bluray.1080p.DTS.2Audio.x264-CHD
    Writing library : x264 core 71 r1210 42d6b17
    Encoding settings : cabac=1 / ref=4 / deblock=1:-3:-3 / analyse=0x3:0x113 / me=umh / subme=9 / psy=1 / psy_rd=1.3:0.3 / mixed_ref=1 / me_range=28 / chroma_me=1 / trellis=1 / 8x8dct=1 / cqm=2 / deadzone=6,4 / chroma_qp_offset=-4 / threads=6 / nr=0 / decimate=1 / mbaff=0 / bframes=3 / b_pyramid=1 / b_adapt=1 / b_bias=0 / direct=3 / wpredb=1 / keyint=250 / keyint_min=25 / scenecut=40 / rc=2pass / mbtree=0 / bitrate=10727 / ratetol=1.0 / qcomp=0.60 / qpmin=10 / qpmax=51 / qpstep=4 / cplxblur=20.0 / qblur=0.5 / ip_ratio=1.40 / pb_ratio=1.30 / aq=1:0.80
    Language : Chinese
    Default : Yes
    Forced : No


    Audio #1
    ID : 1
    Format : AC-3
    Format/Info : Audio Coding 3
    Format settings, Endianness : Big
    Muxing mode : Header stripping
    Codec ID : A_AC3
    Duration : 52 min 33 s
    Bit rate mode : Constant
    Bit rate : 640 kb/s
    Channel(s) : 2 channels
    Channel positions : Front: L R
    Sampling rate : 48.0 kHz
    Frame rate : 31.250 FPS (1536 SPF)
    Bit depth : 16 bits
    Compression mode : Lossy
    Stream size : 241 MiB (5%)
    Title : Thuyết Minh l Vinadot@Present
    Language : Vietnamese
    Service kind : Complete Main
    Default : Yes
    Forced : Yes


    Audio #2
    ID : 3
    Format : AC-3
    Format/Info : Audio Coding 3
    Format settings, Endianness : Big
    Muxing mode : Header stripping
    Codec ID : A_AC3
    Duration : 52 min 33 s
    Bit rate mode : Constant
    Bit rate : 384 kb/s
    Channel(s) : 2 channels
    Channel positions : Front: L R
    Sampling rate : 48.0 kHz
    Frame rate : 31.250 FPS (1536 SPF)
    Bit depth : 16 bits
    Compression mode : Lossy
    Stream size : 144 MiB (3%)
    Title : AC3 2.0 384K 英è¯
    Language : English
    Service kind : Complete Main
    Default : No
    Forced : No



    [​IMG] [​IMG] [​IMG] [​IMG] [​IMG] [​IMG]

    DOWNLOAD
    Fshare

    https://www.fshare.vn/file/AEUUE8NBBDNW

    Torrent:

    http://nethd.org/torrent-139226-africas-super-seven-2008-vie-1080p-bluray-dts-x264-chd-mkv.html
     
    ILoveMusic, lamrai, tlamhp and 3 others like this.
  2. tlamhp

    tlamhp Well-Known Member

    Tham gia ngày:
    23/7/12
    Bài viết:
    801
    Đã được cảm ơn:
    508
    Giới tính:
    Nam
    Nghề nghiệp:
    Housekeeper
    Nơi ở:
    Oakland CA USA
    Hay quá có bác này đem từ bên cái torrent chết tiệt sang bên này chia sẻ với anh em. Cảm ơn bác.
     

Chia sẻ trang này