[Fshare] Spider Man Far From Home 2019 1080p KORSUB HDRip x264 AAC 2.0-STUTTERSHIT

Thảo luận trong 'WEB-DL, HDTV' bắt đầu bởi Anh YAM, 11/9/19.

  1. Anh YAM

    Anh YAM Well-Known Member

    Tham gia ngày:
    5/1/19
    Bài viết:
    242
    Đã được cảm ơn:
    3,823
    Điểm thành tích:
    93
    Giới tính:
    Nam
    Tiền:
    355 CR
    Ipider Man Far From Home 2019 1080p KORSUB HDRip x264 AAC 2.0-STUTTERSHIT
    FORMAT: MKV | SIZE: 5.18 GB


    Người Nhện Xa Nhà
    Tom Holland, Samuel L. Jackson, Jake Gyllenhaal

    [​IMG]

    [​IMG]


    Year: 2019
    Score: 7.9/10
    Votes: 161,403
    Runtime: 2h 9min
    Language: English
    Country: USA
    All Genres: Action, Adventure, Sci-Fi
    Director: Jon Watts

    Plot: Following the events of Avengers: Endgame (2019), Spider-Man must step up to take on new threats in a world that has changed forever.

    Cast:
    Tom Holland, Samuel L. Jackson, Jake Gyllenhaal

    Content

    Người Nhện: Xa Nhà (Spider-Man: Far From Home) là câu chuyện nối tiếp của phần phim chiếu rạp bom tấn đình đám Avenger Endgame. Sau cái chết của Người Sắt Iron Man, Peter Parker trở về nhà, phải mất khá lâu cậu mới vượt qua được nỗi buồn khi tự dưng phải từ biệt Người Sắt. Để tránh nhớ đến, cậu từ bỏ làm người nhện một thời gian và cùng nhóm bạn tận hưởng một kỳ nghỉ tuyệt vời tại Châu Âu. Thế nhưng, thế lực tà ác lại bắt đầu trỗi dậy, và người kế nhiệm kế tiếp của Avengers là Nick Fury tới và cảnh báo cậu về việc đó. Cậu buộc phải từ bỏ đồng phục học sinh, một lần nữa khoác lên mình chiếc áo Người Nhện, và rời xa nhà mình cùng dì May, để bảo vệ chính nghĩa.

    Trailer



    ------------------------------------------------

    Media Info [​IMG]



    General

    Format : MPEG-4
    Format profile : Base Media
    Codec ID : isom (isom/iso2/avc1/mp41)
    File size : 5.18 GiB
    Duration : 2 h 9 min
    Overall bit rate : 5 741 kb/s
    Movie name : Spider.Man-Far.From.Home.2019.1080p.KORSUB.HDRip.x264.AAC2.0-STUTTERSHIT
    Writing application : Lavf58.0.101
    Comment : Spider.Man-Far.From.Home.2019.1080p.KORSUB.HDRip.x264.AAC2.0-STUTTERSHIT
    Video
    ID : 1
    Format : AVC
    Format/Info : Advanced Video Codec
    Format profile : High@L4.1
    Format settings : CABAC / 4 Ref Frames
    Format settings, CABAC : Yes
    Format settings, Reference frames : 4 frames
    Codec ID : avc1
    Codec ID/Info : Advanced Video Coding
    Duration : 2 h 9 min
    Bit rate : 5 500 kb/s
    Width : 1 920 pixels
    Height : 800 pixels
    Display aspect ratio : 2.40:1
    Frame rate mode : Constant
    Frame rate : 30.000 FPS
    Color space : YUV
    Chroma subsampling : 4:2:0
    Bit depth : 8 bits
    Scan type : Progressive
    Bits/(Pixel*Frame) : 0.119
    Stream size : 4.94 GiB (95%)
    Title : Spider.Man-Far.From.Home.2019.1080p.KORSUB.HDRip.x264.AAC2.0-STUTTERSHIT
    Writing library : x264 core 148 r2748 97eaef2
    Encoding settings : cabac=1 / ref=4 / deblock=1:0:0 / analyse=0x3:0x113 / me=umh / subme=9 / psy=1 / psy_rd=1.00:0.00 / mixed_ref=1 / me_range=16 / chroma_me=1 / trellis=2 / 8x8dct=1 / cqm=0 / deadzone=21,11 / fast_pskip=1 / chroma_qp_offset=-2 / threads=72 / lookahead_threads=6 / sliced_threads=0 / nr=0 / decimate=1 / interlaced=0 / bluray_compat=0 / constrained_intra=0 / bframes=3 / b_pyramid=2 / b_adapt=2 / b_bias=0 / direct=3 / weightb=1 / open_gop=0 / weightp=2 / keyint=250 / keyint_min=25 / scenecut=40 / intra_refresh=0 / rc_lookahead=50 / rc=abr / mbtree=1 / bitrate=5500 / ratetol=1.0 / qcomp=0.60 / qpmin=0 / qpmax=69 / qpstep=4 / ip_ratio=1.40 / aq=1:1.00
    Codec configuration box : avcC
    Audio
    ID : 2
    Format : AAC LC
    Format/Info : Advanced Audio Codec Low Complexity
    Codec ID : mp4a-40-2
    Duration : 2 h 9 min
    Bit rate mode : Constant
    Bit rate : 256 kb/s
    Channel(s) : 2 channels
    Channel layout : L R
    Sampling rate : 44.1 kHz
    Frame rate : 43.066 FPS (1024 SPF)
    Compression mode : Lossy
    Stream size : 237 MiB (4%)
    Title : Spider.Man-Far.From.Home.2019.1080p.KORSUB.HDRip.x264.AAC2.0-STUTTERSHIT
    Default : Yes
    Alternate group : 1






    ------------------------------------------------

    Screenshot
    [​IMG]

    [​IMG]

    [​IMG]

    [​IMG]

    [​IMG]

    [​IMG] Download:


    FSHARE:

    Nhấn nút Cảm ơn (dưới chân bài) để thấy link!
    Nhấn nút Cảm ơn (dưới chân bài) để thấy link!

    SUB: SUB: https://subscene.com/subtitles/spider-man-far-from-home/vietnamese
     
    #1 +2 CR
  2. Spaghetti

    Spaghetti Well-Known Member

    Tham gia ngày:
    6/11/14
    Bài viết:
    603
    Đã được cảm ơn:
    280
    Điểm thành tích:
    63
    Giới tính:
    Nam
    Tiền:
    1,391 CR
    Xem xong phim thì cảm thấy mừng là Sony và Marvel đã không còn chung chăn gối nữa. Xem phim chán quá. Thích nhện của Sony hơn nhiều.
     
  3. quanghien1703

    quanghien1703 New Member

    Tham gia ngày:
    3/7/18
    Bài viết:
    9
    Đã được cảm ơn:
    6
    Điểm thành tích:
    3
    Tiền:
    16 CR
    Phim này mà bảo chán thì Venom của Sony chắc khỏi bàn tới =))
     

Chia sẻ trang này