Gặp nhau cuối năm DVD TVRIP PACK (2003-2013)

Thảo luận trong 'mHD, SD' bắt đầu bởi bibi_luv_bobo, 18/2/13.

  1. bibi_luv_bobo

    bibi_luv_bobo New Member

    Tham gia ngày:
    3/8/12
    Bài viết:
    85
    Đã được thích:
    0
    Điểm thành tích:
    0
    Tiền:
    3 CR
    [​IMG]
    [​IMG]
    [​IMG]
    [​IMG]
    Info:
    Mã:
    General
    Format                           : AVI
    Format/Info                      : Audio Video Interleave
    File size                        : 909 MiB
    Duration                         : 1h 26mn
    Overall bit rate                 : 1 467 Kbps
    
    Video
    ID                               : 0
    Format                           : MPEG-4 Visual
    Format profile                   : Advanced Simple@L5
    Format settings, BVOP            : Yes
    Format settings, QPel            : No
    Format settings, GMC             : No warppoints
    Format settings, Matrix          : Default (H.263)
    Muxing mode                      : Packed bitstream
    Codec ID                         : XVID
    Codec ID/Hint                    : XviD
    Duration                         : 1h 26mn
    Bit rate                         : 1 296 Kbps
    Width                            : 720 pixels
    Height                           : 576 pixels
    Display aspect ratio             : 5:4
    Frame rate                       : 25.000 fps
    Standard                         : PAL
    Color space                      : YUV
    Chroma subsampling               : 4:2:0
    Bit depth                        : 8 bits
    Scan type                        : Progressive
    Compression mode                 : Lossy
    Bits/(Pixel*Frame)               : 0.125
    Stream size                      : 803 MiB (88%)
    Writing library                  : XviD 1.1.2 (UTC 2006-11-01)
    
    Audio
    ID                               : 1
    Format                           : MPEG Audio
    Format version                   : Version 1
    Format profile                   : Layer 3
    Codec ID                         : 55
    Codec ID/Hint                    : MP3
    Duration                         : 1h 26mn
    Bit rate mode                    : Constant
    Bit rate                         : 160 Kbps
    Channel(s)                       : 2 channels
    Sampling rate                    : 48.0 KHz
    Compression mode                 : Lossy
    Video delay                      : 24ms
    Stream size                      : 99.2 MiB (11%)
    Alignment                        : Split accross interleaves
    Interleave, duration             : 33 ms (0.83 video frame)
    Interleave, preload duration     : 45 ms
    Title                            : Audio Stream
    
    Trailer:

    [video=youtube;pwxT5epS_Ec]http://www.youtube.com/watch?feature=player_embedded&v=pwxT5epS_Ec[/video]
    1 LINK
    [​IMG]
    [DOWNBOX][HIDE]Gặp nhau cuối năm PACK (2003-2010) [/HIDE][/DOWNBOX]
     
  2. Mizzi

    Mizzi New Member

    Tham gia ngày:
    20/2/13
    Bài viết:
    8
    Đã được thích:
    0
    Điểm thành tích:
    0
    Tiền:
    0 CR
    Mấy folder đầu chất lượng kém quá, có bản nào tốt hơn không?
     

Chia sẻ trang này