[Other] [GDrive] Tây Thi 1996 [USLT - 21/21][4DVD5 - Remux] - Tưởng Cần Cần

Thảo luận trong 'mHD, SD' bắt đầu bởi cantoon, 14/8/19.

  1. cantoon

    cantoon Well-Known Member

    Tham gia ngày:
    29/12/12
    Bài viết:
    453
    Đã được cảm ơn:
    3,355
    Điểm thành tích:
    93
    Tiền:
    555 CR
    [​IMG]
    Mã:
    Format                         : Matroska
    Format version                 : Version 4
    File size                      : 911 MiB
    
    
    	

    Duration : 46 min 20 s

    Overall bit rate mode : Variable Overall bit rate : 2 747 kb/s Encoded date : UTC 2019-08-08 15:48:10 Writing application : mkvmerge v33.0.0 ('A Little Bit of Madness') 64-bit Writing library : libebml v1.3.7 + libmatroska v1.5.0 Video ID : 2 Format : MPEG Video Format version : Version 2 Format profile : Main@Main Format settings : CustomMatrix / BVOP Format settings, BVOP : Yes Format settings, Matrix : Custom Format settings, GOP : M=3, N=15 Format settings, picture struc : Frame Codec ID : V_MPEG2 Codec ID/Info : MPEG 1 or 2 Video Duration : 46 min 20 s Bit rate mode : Variable Bit rate : 2 358 kb/s Maximum bit rate : 9 000 kb/s Width : 720 pixels Height : 480 pixels Display aspect ratio : 4:3 Frame rate mode : Constant Frame rate : 29.970 (30000/1001) FPS Standard : NTSC Color space : YUV Chroma subsampling : 4:2:0 Bit depth : 8 bits Scan type : Interlaced Scan order : Top Field First Compression mode : Lossy Bits/(Pixel*Frame) : 0.228 Time code of first frame : 00:43:48:26 Time code source : Group of pictures header GOP, Open/Closed : Closed Stream size : 782 MiB (86%) Language : English Default : No Forced : No Audio #1 ID : 1 Format : E-AC-3 Format/Info : Enhanced AC-3 Commercial name : Dolby Digital Plus Codec ID : A_EAC3 Duration : 46 min 20 s Bit rate mode : Constant Bit rate : 192 kb/s Channel(s) : 2 channels Channel layout : L R Sampling rate : 48.0 kHz Frame rate : 31.250 FPS (1536 SPF) Compression mode : Lossy Stream size : 63.6 MiB (7%) Service kind : Complete Main Default : Yes Forced : Yes Audio #2 ID : 3 Format : AC-3 Format/Info : Audio Coding 3 Commercial name : Dolby Digital Codec ID : A_AC3 Duration : 46 min 20 s Bit rate mode : Constant Bit rate : 192 kb/s Channel(s) : 2 channels Channel layout : L R Sampling rate : 48.0 kHz Frame rate : 31.250 FPS (1536 SPF) Bit depth : 16 bits Compression mode : Lossy Stream size : 63.6 MiB (7%) Title : Stereo Language : Chinese Service kind : Complete Main Default : No Forced : No Text ID : 4 Format : VobSub Muxing mode : zlib Codec ID : S_VOBSUB Codec ID/Info : Picture based subtitle format used on DVDs Duration : 44 min 24 s Bit rate : 3 859 b/s Count of elements : 461 Stream size : 1.23 MiB (0%) Language : Chinese Default : Yes Forced : No Menu 00:00:00.000 : en:Chapter 01 00:22:20.906 : en:Chapter 02
    Tên tiếng Trung: 西施

    Diễn viên: Tưởng Cần Cần, Khấu Chấn Hải, Từ Thiếu Hoa...

    Nhà tài trợ Raw: @nghianhan1176411
    Nhà tài trợ Audio: @quachni
    Chủ rạp: @cantoon


    Một số đoạn mình liệt kê ở dưới là không có audio lồng tiếng
    *Tập 3: [00:27:03 - 00:30:23]
    *Tập 12: US cut khá nhiều [00:07:38 - 00:32:56]
    *Tập 19: [00:40:40 - 00:41:00]

    GDrive: 21/21
    Link tải phim
    Nhấn nút Cảm ơn (dưới chân bài) để thấy link!
     
    Chỉnh sửa cuối: 14/8/19
    #1 +2 CR
    takahina, boxit, nguyen74 and 37 others like this.
  2. cantoon

    cantoon Well-Known Member

    Tham gia ngày:
    29/12/12
    Bài viết:
    453
    Đã được cảm ơn:
    3,355
    Điểm thành tích:
    93
    Tiền:
    555 CR
    có, bạn gửi mình xin nhé! Xem thử coi ntn:D
     
    #2 +1 CR
  3. yeungoclan

    yeungoclan Member

    Tham gia ngày:
    26/12/10
    Bài viết:
    70
    Đã được cảm ơn:
    37
    Điểm thành tích:
    18
    Tiền:
    74 CR
    Xin hoi bac hoanghai320 la phim Tay Thi 1978 la hang nao va may tap vay? Me cua chau rat thich xem nhung loai phim nhu la Tay Thi nhung chua nghe qua bo do ...
     
  4. nghianhan1176411

    nghianhan1176411 Well-Known Member

    Tham gia ngày:
    23/11/12
    Bài viết:
    315
    Đã được cảm ơn:
    298
    Điểm thành tích:
    63
    Tiền:
    327 CR
    Up lên tốp :)))
     
    cantoon cảm ơn bài này.
  5. boxit

    boxit Active Member

    Tham gia ngày:
    20/12/09
    Bài viết:
    172
    Đã được cảm ơn:
    83
    Điểm thành tích:
    28
    Giới tính:
    Nữ
    Tiền:
    1,017 CR
    Cám ơn các nhà tài trợ và chủ rạp :)
     
    cantoon cảm ơn bài này.

Chia sẻ trang này