[Gia Đình | Tình Cảm] The Farewell 2019 1080p BluRay DTS x264-AAA | Lời Từ Biệt

Thảo luận trong 'Fshare.vn' bắt đầu bởi Anh YAM, 7/11/19.

  1. Anh YAM

    Anh YAM Uploader

    Tham gia ngày:
    5/1/19
    Bài viết:
    965
    Đã được cảm ơn:
    26,647
    Giới tính:
    Nam
    Web:
    The Farewell 2019 1080p BluRay DTS x264-AAA

    Format: MKV | SIZE: 7.64 GB


    Lời từ biệt

    [​IMG]

    [​IMG]

    IMDb: 8.1/10 from 8,510 users



    [​IMG]


    Plot

    Lời từ biệt (The Farewell)kể câu chuyện “cười ra nước mắt” theo đúng nghĩa đen về một đại gia đình đông đúc. Cả gia đình của Bili từ New York quay trở về Trung Quốc để tham dự một đám cưới giả - cái cớ để cho cả đại gia đình được đoàn tụ khi biết tin người bà của mình chỉ còn vài tuần để sống. Trong khi đó, bà lại là người duy nhất hoàn toàn không biết đến căn ác bệnh của mình.

    Trailer



    Review



    Media Info [​IMG]

    General
    Unique ID : 192446692166716138893536554044198579427 (0x90C7E27CA17C3560A4468B261D556CE3)
    Complete name : the.farewell.2019.1080p.bluray.x264-aaa.mkv
    Format : Matroska
    Format version : Version 4 / Version 2
    File size : 7.64 GiB
    Duration : 1h 39mn
    Overall bit rate : 11.0 Mbps
    Encoded date : UTC 2019-11-06 22:51:00
    Writing application : mkvmerge v34.0.0 ('Sight and Seen') 64-bit
    Writing library : libebml v1.3.7 + libmatroska v1.5.0

    Video
    ID : 1
    Format : AVC
    Format/Info : Advanced Video Codec
    Format profile : High@L4.1
    Format settings, CABAC : Yes
    Format settings, ReFrames : 5 frames
    Codec ID : V_MPEG4/ISO/AVC
    Duration : 1h 39mn
    Bit rate : 9 445 Kbps
    Width : 1 920 pixels
    Height : 808 pixels
    Display aspect ratio : 2.40:1
    Frame rate mode : Constant
    Frame rate : 23.976 (24000/1001) fps


    Audio
    ID : 2
    Format : DTS
    Format/Info : Digital Theater Systems
    Codec ID : A_DTS
    Bit rate mode : Constant
    Bit rate : 1 509 Kbps
    Channel(s) : 6 channels
    Channel positions : Front: L C R, Side: L R, LFE
    Sampling rate : 48.0 KHz
    Frame rate : 93.750 fps (512 spf)
    Bit depth : 24 bits
    Compression mode : Lossy
    Stream size : 1.05 GiB (14%)
    Language : English
    Default : Yes
    Forced : No

    Text
    ID : 3
    Format : UTF-8
    Codec ID : S_TEXT/UTF8
    Codec ID/Info : UTF-8 Plain Text
    Duration : 1h 31mn
    Bit rate : 22 bps
    Count of elements : 597
    Stream size : 15.4 KiB (0%)
    Language : English
    Default : No
    Forced : No

    Menu
    00:00:00.000 : en:Chapter 01
    00:06:05.198 : en:Chapter 02
    00:12:44.180 : en:Chapter 03
    00:19:49.105 : en:Chapter 04
    00:25:18.767 : en:Chapter 05
    00:30:53.935 : en:Chapter 06
    00:35:05.228 : en:Chapter 07
    00:44:44.307 : en:Chapter 08
    00:51:28.168 : en:Chapter 09
    00:55:31.244 : en:Chapter 10
    01:03:09.369 : en:Chapter 11
    01:07:16.366 : en:Chapter 12
    01:15:48.878 : en:Chapter 13
    01:22:03.418 : en:Chapter 14
    01:27:38.670 : en:Chapter 15
    01:32:33.923 : en:Chapter 16


    -------------------------------------------

    Screenshot

    [​IMG] [​IMG] [​IMG] [​IMG] [​IMG] [​IMG] [​IMG] [​IMG]

    [​IMG]


    Nhấn nút Cảm ơn (dưới chân bài) để thấy link!


    SUB:

     

Chia sẻ trang này