[Fshare] Giai Thoại Về Trà - Tea Complete 1080i Blu-ray HDTV MPEG2 DD5.1 - wairui@OurBits

Thảo luận trong 'Phim tài liệu - Documentaries' bắt đầu bởi leutrunghieu1993, 14/12/19.

  1. leutrunghieu1993

    leutrunghieu1993 Uploader

    Tham gia ngày:
    24/3/13
    Bài viết:
    2,101
    Đã được cảm ơn:
    31,584
    Nghề nghiệp:
    Director Animation
    Nơi ở:
    Hà Nội
    Note 1 : Tất cả các thread lập nếu file nào có yêu cầu mật khẩu thì anh em nhập 1993 áp dụng cho tất cả các phim(nếu có). Anh em thông cảm vì sự bất tiện này.

    Tea Complete 1080i Blu-ray HDTV MPEG2 DD5.1 - wairui@OurBits
    TMDB : 8,8/10 ~ 8.414 votes
    Giai Thoại Về Trà
    Bộ Sưu Tập Phim Tài Liệu

    [​IMG]

     茶,是中国最具代表性的文化之一。千百年来,茶文化几经传承、历练、蜕变,焕发出别样的光彩和魅力。本纪录片寻访了云南、福建、四川的产茶重地,记录下小小的一片那嫩叶是如何历经风雨被采下来,并经过复杂的工序和手艺焙制称清香四溢的坐上佳品。跟随摄制组的脚步,观众走访了中国、日本、印度、泰国、肯尼亚,领略了千百年来茶叶在亚非各国落地开花,所滋养出来的不同的文化底蕴。茶叶何止滋养了一方水土,更联络其从东方到西方、从远古到现代全人类的灵魂与情感。
      它本是一片绿叶,当与人类邂逅之后,它走过漫长的旅途,最终上升为一种对生活的热爱与信仰……
    [​IMG] [​IMG] [​IMG] [​IMG] [​IMG] [​IMG] [​IMG] [​IMG]
    Mã:
    DISC INFO:
    Disc Title:     The story of Chinese tea
    Disc Size:      42,521,660,558 bytes
    Protection:     AACS
    BD-Java:        No
    
    
    Extras:         50Hz Content
    BDInfo:         0.5.8
    PLAYLIST REPORT:
    Name:                   00007.MPLS
    Length:                 4:53:01.720 (h:m:s.ms)
    Size:                   42,407,184,384 bytes
    Total Bitrate:          19.30 Mbps
    VIDEO:
    Codec                   Bitrate             Description    
    -----                   -------             -----------    
    MPEG-2 Video            17501 kbps          1080i / 25 fps / 16:9
    AUDIO:
    Codec                           Language        Bitrate         Description    
    -----                           --------        -------         -----------    
    Dolby Digital Audio             Chinese         448 kbps        5.1 / 48 kHz / 448 kbps / DN -7dB
    Dolby Digital Audio             Chinese         448 kbps        2.0 / 48 kHz / 448 kbps
    FILES:
    Name            Time In         Length          Size            Total Bitrate  
    ----            -------         ------          ----            -------------  
    00001.M2TS      0:00:00.000     0:48:50.120     7,067,584,512   19,296         
    00002.M2TS      0:48:50.120     0:48:50.719     7,069,132,800   19,297         
    00003.M2TS      1:37:40.840     0:48:50.360     7,068,069,888   19,296         
    00004.M2TS      2:26:31.200     0:48:50.040     7,067,056,128   19,295         
    00005.M2TS      3:15:21.240     0:48:50.400     7,068,278,784   19,296         
    00006.M2TS      4:04:11.640     0:48:50.080     7,067,062,272   19,295   
    
    [​IMG]
    Link tải phim
     
    duyly, huy492, hermerry_2012 and 53 others like this.
  2. Jellkeen

    Jellkeen Well-Known Member

    Tham gia ngày:
    24/2/13
    Bài viết:
    3,010
    Đã được cảm ơn:
    4,588
    Giới tính:
    Nam
    Nghề nghiệp:
    Vô Định
    Nơi ở:
    Vô Gia Cư
    Bọn nó ra bluray mà ko có sub Anh :rolleyes:
     
    hongphuongvt09 and Mr A like this.
  3. leutrunghieu1993

    leutrunghieu1993 Uploader

    Tham gia ngày:
    24/3/13
    Bài viết:
    2,101
    Đã được cảm ơn:
    31,584
    Nghề nghiệp:
    Director Animation
    Nơi ở:
    Hà Nội
    BD nhưng chỉ là mpeg-2 thôi anh ạ. Dạng số hóa lại từ HDTV
     
    hongphuongvt09 and Mr A like this.
  4. leutrunghieu1993

    leutrunghieu1993 Uploader

    Tham gia ngày:
    24/3/13
    Bài viết:
    2,101
    Đã được cảm ơn:
    31,584
    Nghề nghiệp:
    Director Animation
    Nơi ở:
    Hà Nội
    BD nhưng chỉ là mpeg-2 thôi anh ạ. Dạng số hóa lại từ HDTV thôi anh ạ, vẫn dính logo
     
    hongphuongvt09, Mr A and Jellkeen like this.
  5. tlamhp

    tlamhp Well-Known Member

    Tham gia ngày:
    23/7/12
    Bài viết:
    890
    Đã được cảm ơn:
    667
    Giới tính:
    Nam
    Nghề nghiệp:
    Housekeeper
    Nơi ở:
    Oakland CA USA
    Phim này phải down lần 2 mới được.
     
    hongphuongvt09 cảm ơn bài này.
  6. sniper013vn

    sniper013vn Member

    Tham gia ngày:
    27/8/10
    Bài viết:
    92
    Đã được cảm ơn:
    99
    cái này có sub không bạn ơi?
     
    hongphuongvt09 cảm ơn bài này.

Chia sẻ trang này