[MULTI] Godless S01 2160p NF WEB-DL DDP5.1 H265 ~ Viễn Tây Đẫm Máu (Full Vietsub)

Thảo luận trong 'Phim bộ - Series' bắt đầu bởi adm820, 14/1/20.

Tags
  1. adm820

    adm820 Moderator Thành viên BQT

    Tham gia ngày:
    1/12/10
    Bài viết:
    7,121
    Đã được cảm ơn:
    163,540
    Giới tính:
    Nam
    [​IMG]

    upload_2020-1-14_11-54-51.png

    Mã:
    General
    
    
    	

    Unique ID : 251941168216886012686945729386491758283 (0xBD8A1AA05A2928BF7EFFCE89BAF546CB)

    Complete name : C:\Users\Administrator\Downloads\Godless.S01E06.2160p.NF.WEB-DL.DDP5.1.H265-HDVN.mkv Format : Matroska Format version : Version 4 File size : 4.49 GiB Duration : 41 min 3 s Overall bit rate : 15.7 Mb/s Encoded date : UTC 2020-01-14 03:56:29 Writing application : mkvmerge v42.0.0 ('Overtime') 64-bit Writing library : libebml v1.3.10 + libmatroska v1.5.2 Video ID : 1 Format : HEVC Format/Info : High Efficiency Video Coding Format profile : Main 10@L5@Main Codec ID : V_MPEGH/ISO/HEVC Duration : 41 min 2 s Bit rate : 14.5 Mb/s Width : 3 840 pixels Height : 2 160 pixels Display aspect ratio : 16:9 Frame rate mode : Constant Frame rate : 23.976 (24000/1001) FPS Color space : YUV Chroma subsampling : 4:2:0 Bit depth : 10 bits Bits/(Pixel*Frame) : 0.073 Stream size : 4.14 GiB (92%) Default : Yes Forced : No Color range : Limited Color primaries : BT.709 Transfer characteristics : BT.709 Matrix coefficients : BT.709 Audio #1 ID : 2 Format : E-AC-3 JOC Format/Info : Enhanced AC-3 with Joint Object Coding Commercial name : Dolby Digital Plus with Dolby Atmos Codec ID : A_EAC3 Duration : 41 min 2 s Bit rate mode : Constant Bit rate : 768 kb/s Channel(s) : 6 channels Channel layout : L R C LFE Ls Rs Sampling rate : 48.0 kHz Frame rate : 31.250 FPS (1536 SPF) Compression mode : Lossy Stream size : 225 MiB (5%) Title : English [Original] Language : English Service kind : Complete Main Default : Yes Forced : No Complexity index : 16 Number of dynamic objects : 15 Bed channel count : 1 channel Bed channel configuration : LFE Audio #2 ID : 3 Format : E-AC-3 Format/Info : Enhanced AC-3 Commercial name : Dolby Digital Plus Codec ID : A_EAC3 Duration : 41 min 3 s Bit rate mode : Constant Bit rate : 448 kb/s Channel(s) : 6 channels Channel layout : L R C LFE Ls Rs Sampling rate : 48.0 kHz Frame rate : 31.250 FPS (1536 SPF) Compression mode : Lossy Stream size : 132 MiB (3%) Title : English [Original] Language : English Service kind : Complete Main Default : No Forced : No Text #1 ID : 4 Format : UTF-8 Codec ID : S_TEXT/UTF8 Codec ID/Info : UTF-8 Plain Text Duration : 40 min 30 s Bit rate : 36 b/s Count of elements : 407 Stream size : 10.9 KiB (0%) Title : English Language : English Default : No Forced : No Text #2 ID : 5 Format : UTF-8 Codec ID : S_TEXT/UTF8 Codec ID/Info : UTF-8 Plain Text Duration : 37 min 35 s Bit rate : 39 b/s Count of elements : 309 Stream size : 10.8 KiB (0%) Title : Vietnamese Language : Vietnamese Default : Yes Forced : No
    [​IMG] [​IMG] [​IMG]

    Link tải

    Nhấn nút Cảm ơn (dưới chân bài) để thấy link!

     
  2. ahipsa

    ahipsa Well-Known Member

    Tham gia ngày:
    24/2/19
    Bài viết:
    439
    Đã được cảm ơn:
    337
    Giới tính:
    Nam
    Nghề nghiệp:
    SINH VIÊN
    Nơi ở:
    BÌNH DƯƠNG
    Folder trống trơn bác ơi
     
  3. adm820

    adm820 Moderator Thành viên BQT

    Tham gia ngày:
    1/12/10
    Bài viết:
    7,121
    Đã được cảm ơn:
    163,540
    Giới tính:
    Nam

    đã fixx
     
    TSH6506 cảm ơn bài này.
  4. G888

    G888 Active Member

    Tham gia ngày:
    1/12/09
    Bài viết:
    116
    Đã được cảm ơn:
    65
    Bác ơi cho em hỏi dùng phần mềm gì xem chuẩn ạ? Em dùng KMPlayer với WMP hình cứ như quay chậm ý. Cảm ơn bác ạ.
     

Chia sẻ trang này