[Hài-1 link FS]Hoài Linh liveshow 6: Gã lưu manh và chàng khờ

Thảo luận trong 'mHD, SD' bắt đầu bởi nhoc_romeo, 5/5/13.

  1. nhoc_romeo

    nhoc_romeo Active Member

    Tham gia ngày:
    22/8/09
    Bài viết:
    1,287
    Đã được thích:
    1
    Điểm thành tích:
    38
    Tiền:
    2,348 CR
    View attachment 104973


    Mã:
    Gã Lưu Manh Và Chàng Khờ 
    Chí Tài - Hoài Linh - Việt Hương 
     
    1. Thằng Bờm Nhóm Múa ABC Kios 
    2. Lời Chưa Nói Phương Thanh 
    3. Kịch "Kẻ Lưu Manh Và Chàng Khờ Hoài Linh - Chí Tài 
    4. Ngày Vui Qua Mau Cẩm Ly 
    5. Ghét Anh Giận Anh Cẩm Ly 
    6. Kịch "Ngọc Nhãn Long" Hoài Linh - Chí Tài - Việt Hương 
    7. Mãi Mãi Bên Em Dương Triệu Vũ 
    8. Người Về Từ Lòng Đất Dương Triệu Vũ & Vũ Đoàn Bước Nhảy 
    9. Kịch "Quê Chúng Ta" Hoài Linh - Chí Tài - Thanh Hằng 
    10. Kịch "Trộm" Hoài Linh - Cát Phượng - Long Đẹp Trai 
    11. My Love Lý Hải & Vũ Đoàn Hoàng Thông 
    12. Kịch "Số Phận" Hoài Linh - Chí Tài 
    

    Mã:
    [LEFT]General
    Complete name                            : H:\G- l-u manh và chàng kh-\Gã lưu manh và chàng khờ 1.FLV
    Format                                   : Flash Video
    File size                                : 156 MiB
    Duration                                 : 22mn 32s
    Overall bit rate                         : 966 Kbps
    httphostheader                           : r2---sn-42u-nbod.c.youtube.com
    
    Video
    Format                                   : AVC
    Format/Info                              : Advanced Video Codec
    Format profile                           : Main@L3.1
    Format settings, CABAC                   : Yes
    Format settings, ReFrames                : 3 frames
    Format settings, GOP                     : M=1, N=60
    Codec ID                                 : 7
    Duration                                 : 22mn 32s
    Bit rate                                 : 829 Kbps
    Width                                    : 854 pixels
    Height                                   : 480 pixels
    Display aspect ratio                     : 16:9
    Frame rate mode                          : Constant
    Frame rate                               : 29.970 fps
    Color space                              : YUV
    Chroma subsampling                       : 4:2:0
    Bit depth                                : 8 bits
    Scan type                                : Progressive
    Bits/(Pixel*Frame)                       : 0.067
    Stream size                              : 134 MiB (86%)
    
    Audio
    Format                                   : AAC
    Format/Info                              : Advanced Audio Codec
    Format profile                           : LC
    Codec ID                                 : 10
    Duration                                 : 22mn 33s
    Bit rate                                 : 129 Kbps
    Channel(s)                               : 2 channels
    Channel positions                        : Front: L R
    Sampling rate                            : 44.1 KHz
    Compression mode                         : Lossy
    Stream size                              : 20.8 MiB (13%)[/LEFT]
    [DOWNBOX][hide] Fshare - Dich vu chia se, luu tru du lieu mien phi tot nhat [/hide]
    pass: hdmovie.vn[/DOWNBOX]
     
    Chỉnh sửa cuối: 7/5/13
  2. danglqd

    danglqd Member

    Tham gia ngày:
    9/1/12
    Bài viết:
    120
    Đã được thích:
    1
    Điểm thành tích:
    18
    Tiền:
    1,084 CR
    Ðề: [Hài-1 link FS]Hoài Linh liveshow 6: Gã lưu manh và chàng khờ

    có hoài linh liveshow 5 không bác
     
  3. zabuza1997

    zabuza1997 Member

    Tham gia ngày:
    21/11/12
    Bài viết:
    294
    Đã được thích:
    0
    Điểm thành tích:
    16
    Tiền:
    758 CR
    quá đã\m/\m/!!!!!!!!!!!!
     
  4. nhoc_romeo

    nhoc_romeo Active Member

    Tham gia ngày:
    22/8/09
    Bài viết:
    1,287
    Đã được thích:
    1
    Điểm thành tích:
    38
    Tiền:
    2,348 CR
  5. sonkhte

    sonkhte New Member

    Tham gia ngày:
    21/3/13
    Bài viết:
    715
    Đã được thích:
    0
    Điểm thành tích:
    0
    Tiền:
    188 CR
    kéo cái này về xem đỡ buồn, thank chủ thớt
     
  6. solomine

    solomine Active Member

    Tham gia ngày:
    2/1/10
    Bài viết:
    3,386
    Đã được thích:
    17
    Điểm thành tích:
    38
    Tiền:
    1,833 CR
    Ðề: [Hài-1 link FS]Hoài Linh liveshow 6: Gã lưu manh và chàng khờ

    Bản này là sao nhỉ? Rip hay DVDRip hay DVD gốc nhỉ? E thấy dung lượng chỉ 1,1Gb? Bác chủ cho e xin ít thông tin nhé. Tks
     
  7. colsoul302

    colsoul302 Member

    Tham gia ngày:
    16/10/10
    Bài viết:
    176
    Đã được thích:
    0
    Điểm thành tích:
    16
    Nghề nghiệp:
    Nhân viên kế toán
    Nơi ở:
    Việt Nam
    Tiền:
    619 CR
    Ðề: [Hài-1 link FS]Hoài Linh liveshow 6: Gã lưu manh và chàng khờ

    Toàn là file flv không ah
     
  8. congdanh1403

    congdanh1403 New Member

    Tham gia ngày:
    23/6/10
    Bài viết:
    3
    Đã được thích:
    0
    Điểm thành tích:
    0
    Tiền:
    2 CR
    Ðề: [Hài-1 link FS]Hoài Linh liveshow 6: Gã lưu manh và chàng khờ

    Cảm ơn!thanks...
     
  9. cukhoainuong3003

    cukhoainuong3003 Member

    Tham gia ngày:
    4/5/10
    Bài viết:
    69
    Đã được thích:
    0
    Điểm thành tích:
    6
    Tiền:
    667 CR
    Ðề: [Hài-1 link FS]Hoài Linh liveshow 6: Gã lưu manh và chàng khờ

    phần này vui thank bác :)
     
  10. vtkhoi

    vtkhoi New Member

    Tham gia ngày:
    29/1/10
    Bài viết:
    20
    Đã được thích:
    0
    Điểm thành tích:
    0
    Tiền:
    28 CR
    Ðề: [Hài-1 link FS]Hoài Linh liveshow 6: Gã lưu manh và chàng khờ

    khoái Hoài Linh, thanks bác
     

Chia sẻ trang này