[Hài Hước | 1 Link] Cột mốc 23 2011 720p WEB-DL -Huy Khánh, Phi Thanh Vân, Tiết Cương, Thân Thúy Hà,

Thảo luận trong 'up.4share.vn' bắt đầu bởi quangnuyen, 11/4/13.

  1. quangnuyen

    quangnuyen Active Member

    Tham gia ngày:
    21/6/12
    Bài viết:
    2,752
    Đã được thích:
    2
    Điểm thành tích:
    38
    Cột mốc 23 2011 720p WEB-DL -Huy Khánh, Phi Thanh Vân, Tiết Cương, Thân Thúy Hà, Trung Dân
    [​IMG]
    Mã:
    General
    Complete name                    : Cột mốc 23 Full.NoMoreAres.mp4
    Format                           : MPEG-4
    Format profile                   : Base Media / Version 2
    Codec ID                         : mp42
    File size                        : 1.36 GiB
    Duration                         : 1h 50mn
    Overall bit rate                 : 1 766 Kbps
    Encoded date                     : UTC 2013-03-12 08:37:30
    Tagged date                      : UTC 2013-03-12 08:37:30
    gsst                             : 0
    gstd                             : 6627253
    gssd                             : B7DEA3546HH1365580840201366
    gshh                             : r3---sn-8pxuuxa-nbol.c.youtube.com
    
    Video
    ID                               : 1
    Format                           : AVC
    Format/Info                      : Advanced Video Codec
    Format profile                   : High@L3.1
    Format settings, CABAC           : Yes
    Format settings, ReFrames        : 1 frame
    Codec ID                         : avc1
    Codec ID/Info                    : Advanced Video Coding
    Duration                         : 1h 50mn
    Bit rate mode                    : Variable
    Bit rate                         : 1 572 Kbps
    Maximum bit rate                 : 7 377 Kbps
    Width                            : 1 280 pixels
    Height                           : 720 pixels
    Display aspect ratio             : 16:9
    Frame rate mode                  : Constant
    Frame rate                       : 24.000 fps
    Resolution                       : 8 bits
    Colorimetry                      : 4:2:0
    Scan type                        : Progressive
    Bits/(Pixel*Frame)               : 0.071
    Stream size                      : 1.21 GiB (89%)
    Tagged date                      : UTC 2013-03-12 08:54:01
    
    Audio
    ID                               : 2
    Format                           : AAC
    Format/Info                      : Advanced Audio Codec
    Format version                   : Version 4
    Format profile                   : LC
    Format settings, SBR             : No
    Codec ID                         : 40
    Duration                         : 1h 50mn
    Bit rate mode                    : Variable
    Bit rate                         : 192 Kbps
    Maximum bit rate                 : 201 Kbps
    Channel(s)                       : 2 channels
    Channel positions                : Front: L R
    Sampling rate                    : 44.1 KHz
    Stream size                      : 152 MiB (11%)
    Title                            : IsoMedia File Produced by Google, 5-11-2011
    Encoded date                     : UTC 2013-03-12 08:47:44
    Tagged date                      : UTC 2013-03-12 08:54:01
    [video=youtube;hK-1YpdIOaY]http://www.youtube.com/watch?feature=player_embedded&v=hK-1YpdIOaY[/video]
    1 Link 1.36 Gb
    [HIDE] [/HIDE]​
     
  2. tnhan2601

    tnhan2601 New Member

    Tham gia ngày:
    20/4/11
    Bài viết:
    9
    Đã được thích:
    0
    Điểm thành tích:
    0
    Ðề: [Hài Hước | 1 Link] Cột mốc 23 2011 720p WEB-DL -Huy Khánh, Phi Thanh Vân, Tiết Cương, Thân Thúy Hà, Trung Dân

    đang kéo. ủng hộ hàng việt nam chất lượng cao
     

Chia sẻ trang này