[Hài Hước | 1link ] Love is Not Blind 2011 EXTENDED 720p HDTV x264-ViTiS - Phi Thường Hoàn Mỹ 2

Thảo luận trong 'Fshare.vn' bắt đầu bởi xemaydinh, 27/2/12.

  1. xemaydinh

    xemaydinh Tem

    Tham gia ngày:
    3/7/10
    Bài viết:
    29,222
    Đã được cảm ơn:
    116,306
    Love is Not Blind 2011 EXTENDED 720p HDTV x264-ViTiS - Phi Thường Hoàn Mỹ 2


    [​IMG]





    Mã:
    General
    Unique ID                                : 217899936880911597757070445300197869797 (0xA3EE005749A285A1B10F41742B37C8E5)
    Complete name                            : D:\Movie\Love.is.Not.Blind.2011.EXTENDED.720p.HDTV  .x264-ViTiS.mkv
    Format                                   : Matroska
    Format version                           : Version 2
    File size                                : 4.37 GiB
    Duration                                 : 2h 24mn
    Overall bit rate                         : 4 347 Kbps
    
    
    Encoded date                             : UTC 2012-02-27 01:46:49
    Writing application                      : mkvmerge v4.9.1 ('Ich will') built on Jul 11 2011 23:53:15
    Writing library                          : libebml v1.2.1 + libmatroska v1.1.1
    
    Video
    ID                                       : 1
    Format                                   : AVC
    Format/Info                              : Advanced Video Codec
    Format profile                           : High@L4.1
    Format settings, CABAC                   : Yes
    Format settings, ReFrames                : 4 frames
    Muxing mode                              : Header stripping
    Codec ID                                 : V_MPEG4/ISO/AVC
    Duration                                 : 2h 24mn
    Bit rate                                 : 4 250 Kbps
    Width                                    : 1 280 pixels
    Height                                   : 528 pixels
    Display aspect ratio                     : 2.40:1
    Frame rate                               : 25.000 fps
    Color space                              : YUV
    Chroma subsampling                       : 40
    Bit depth                                : 8 bits
    Scan type                                : Progressive
    Bits/(Pixel*Frame)                       : 0.252
    Stream size                              : 4.19 GiB (96%)
    Writing library                          : x264 core 116 r2074 2641b9e
    Encoding settings                        : cabac=1 / ref=5 / deblock=1:-3:-3 / analyse=0x3:0x113 / me=esa / subme=9 / psy=1 / psy_rd=1.00:0.15 / mixed_ref=1 / me_range=32 / chroma_me=1 / trellis=2 / 8x8dct=1 / cqm=0 / deadzone=21,11 / fast_pskip=0 / chroma_qp_offset=-3 / threads=16 / sliced_threads=0 / nr=0 / decimate=1 / interlaced=0 / bluray_compat=1 / constrained_intra=0 / bframes=3 / b_pyramid=1 / b_adapt=2 / b_bias=0 / direct=3 / weightb=1 / open_gop=1 / weightp=1 / keyint=250 / keyint_min=25 / scenecut=40 / intra_refresh=0 / rc_lookahead=50 / rc=2pass / mbtree=1 / bitrate=4250 / ratetol=1.0 / qcomp=0.60 / qpmin=0 / qpmax=69 / qpstep=4 / cplxblur=20.0 / qblur=0.5 / ip_ratio=1.40 / aq=1:1.00
    Language                                 : English
    Default                                  : Yes
    Forced                                   : No
    
    Audio
    ID                                       : 2
    Format                                   : AC-3
    Format/Info                              : Audio Coding 3
    Mode extension                           : CM (complete main)
    Muxing mode                              : Header stripping
    Codec ID                                 : A_AC3
    Duration                                 : 2h 24mn
    Bit rate mode                            : Constant
    Bit rate                                 : 96.0 Kbps
    Channel(s)                               : 1 channel
    Channel positions                        : Front: C
    Sampling rate                            : 48.0 KHz
    Bit depth                                : 16 bits
    Compression mode                         : Lossy
    Delay relative to video                  : 30ms
    Stream size                              : 98.9 MiB (2%)
    Default                                  : Yes
    Forced                                   : No



    [​IMG] [​IMG]
    [​IMG] [​IMG]


    [video=youtube;hSlv7zP6fsY]http://www.youtube.com/watch?v=hSlv7zP6fsY[/video]


    1 link~4.36GB


    Nhấn nút Cảm ơn (dưới chân bài) để thấy link!



    Megashare


    Nhấn nút Cảm ơn (dưới chân bài) để thấy link!












    D/S phim hay duoc chon loc
     
    Chỉnh sửa cuối: 27/2/12
  2. tuannguyen1919

    tuannguyen1919 New Member

    Tham gia ngày:
    16/1/12
    Bài viết:
    8
    Đã được cảm ơn:
    0
    Ðề: [Hài Hước | 1link ] Love is Not Blind 2011 EXTENDED 720p HDTV x264-ViTiS - Phi Thường Hoàn Mỹ 2

    thank,để kéo về xem thử
    Úi chưa có Subviet
     
  3. xemaydinh

    xemaydinh Tem

    Tham gia ngày:
    3/7/10
    Bài viết:
    29,222
    Đã được cảm ơn:
    116,306
    Ðề: [Hài Hước | 1link ] Love is Not Blind 2011 EXTENDED 720p HDTV x264-ViTiS - Phi Thường Hoàn Mỹ 2

    Add megashare .
     
  4. sweatdream7x

    sweatdream7x New Member

    Tham gia ngày:
    23/2/12
    Bài viết:
    12
    Đã được cảm ơn:
    1
    Ðề: [Hài Hước | 1link ] Love is Not Blind 2011 EXTENDED 720p HDTV x264-ViTiS - Phi Thường Hoàn Mỹ 2

    Cám ơn bác đã up.........................
     
  5. dinhvan_bt

    dinhvan_bt Well-Known Member

    Tham gia ngày:
    4/12/09
    Bài viết:
    1,149
    Đã được cảm ơn:
    66
    Nơi ở:
    Ho Chi Minh city
    Ðề: [Hài Hước | 1link ] Love is Not Blind 2011 EXTENDED 720p HDTV x264-ViTiS - Phi Thường Hoàn Mỹ 2

    Thanks for share
     
  6. lamhnz

    lamhnz Member

    Tham gia ngày:
    3/11/11
    Bài viết:
    207
    Đã được cảm ơn:
    3
    Ðề: [Hài Hước | 1link ] Love is Not Blind 2011 EXTENDED 720p HDTV x264-ViTiS - Phi Thường Hoàn Mỹ 2

    anh xemaydinh reup link Fshare lại giúp em với... link xóa trong ht mất rồi :(
    Thanks for share !
     

Chia sẻ trang này