[MULTI] [Hài Hước] Better Call Saul S01-S05 1080p NF WEB-DL DDP 5.1 H265 ~ Hãy gọi cho Saul (Vietsub)

Thảo luận trong 'Phim bộ - Series' bắt đầu bởi adm820, 24/3/20.

Tags
  1. adm820

    adm820 Moderator Thành viên BQT

    Tham gia ngày:
    1/12/10
    Bài viết:
    7,211
    Đã được cảm ơn:
    165,915
    Giới tính:
    Nam
    [​IMG]

    upload_2020-3-24_14-43-25.png


    Mã:
    General
    
    
    	

    Unique ID : 10082820722248048150718866285262824411 (0x795E171506B805AC943339500B063DB)

    Complete name : D:\Better.Call.Saul.S05.1080p.NF.WEB-DL.DDP.5.1.H.265\Better.Call.Saul.S05E01.Magic.Man.1080p.NF.WEB-DL.DDP.5.1.H.265.mkv Format : Matroska Format version : Version 4 File size : 4.10 GiB Duration : 54 min 53 s Overall bit rate : 10.7 Mb/s Encoded date : UTC 2020-03-24 06:59:56 Writing application : mkvmerge v44.0.0 ('Domino') 64-bit Writing library : libebml v1.3.10 + libmatroska v1.5.2 Video ID : 1 Format : HEVC Format/Info : High Efficiency Video Coding Format profile : Main 10@L4@Main Codec ID : V_MPEGH/ISO/HEVC Duration : 54 min 53 s Bit rate : 5 557 kb/s Width : 1 920 pixels Height : 1 080 pixels Display aspect ratio : 16:9 Frame rate mode : Constant Frame rate : 23.976 (24000/1001) FPS Color space : YUV Chroma subsampling : 4:2:0 Bit depth : 10 bits Bits/(Pixel*Frame) : 0.112 Stream size : 2.13 GiB (52%) Default : Yes Forced : No Color range : Limited Color primaries : BT.709 Transfer characteristics : BT.709 Matrix coefficients : BT.709 Audio #1 ID : 2 Format : E-AC-3 Format/Info : Enhanced AC-3 Commercial name : Dolby Digital Plus Codec ID : A_EAC3 Duration : 54 min 53 s Bit rate mode : Constant Bit rate : 640 kb/s Channel(s) : 6 channels Channel layout : L R C LFE Ls Rs Sampling rate : 48.0 kHz Frame rate : 31.250 FPS (1536 SPF) Compression mode : Lossy Stream size : 251 MiB (6%) Title : Brazilian Portuguese Language : Portuguese Service kind : Complete Main Default : No Forced : No Audio #2 ID : 3 Format : E-AC-3 Format/Info : Enhanced AC-3 Commercial name : Dolby Digital Plus Codec ID : A_EAC3 Duration : 54 min 53 s Bit rate mode : Constant Bit rate : 640 kb/s Channel(s) : 6 channels Channel layout : L R C LFE Ls Rs Sampling rate : 48.0 kHz Frame rate : 31.250 FPS (1536 SPF) Compression mode : Lossy Stream size : 251 MiB (6%) Title : English Language : English Service kind : Complete Main Default : Yes Forced : No Audio #3 ID : 4 Format : E-AC-3 Format/Info : Enhanced AC-3 Commercial name : Dolby Digital Plus Codec ID : A_EAC3 Duration : 54 min 53 s Bit rate mode : Constant Bit rate : 640 kb/s Channel(s) : 6 channels Channel layout : L R C LFE Ls Rs Sampling rate : 48.0 kHz Frame rate : 31.250 FPS (1536 SPF) Compression mode : Lossy Stream size : 251 MiB (6%) Title : European Spanish Language : Spanish Service kind : Complete Main Default : No Forced : No Audio #4 ID : 5 Format : E-AC-3 Format/Info : Enhanced AC-3 Commercial name : Dolby Digital Plus Codec ID : A_EAC3 Duration : 54 min 53 s Bit rate mode : Constant Bit rate : 640 kb/s Channel(s) : 6 channels Channel layout : L R C LFE Ls Rs Sampling rate : 48.0 kHz Frame rate : 31.250 FPS (1536 SPF) Compression mode : Lossy Stream size : 251 MiB (6%) Title : French Language : French Service kind : Complete Main Default : No Forced : No Audio #5 ID : 6 Format : E-AC-3 Format/Info : Enhanced AC-3 Commercial name : Dolby Digital Plus Codec ID : A_EAC3 Duration : 54 min 53 s Bit rate mode : Constant Bit rate : 640 kb/s Channel(s) : 6 channels Channel layout : L R C LFE Ls Rs Sampling rate : 48.0 kHz Frame rate : 31.250 FPS (1536 SPF) Compression mode : Lossy Stream size : 251 MiB (6%) Title : German Language : German Service kind : Complete Main Default : No Forced : No Audio #6 ID : 7 Format : E-AC-3 Format/Info : Enhanced AC-3 Commercial name : Dolby Digital Plus Codec ID : A_EAC3 Duration : 54 min 53 s Bit rate mode : Constant Bit rate : 640 kb/s Channel(s) : 6 channels Channel layout : L R C LFE Ls Rs Sampling rate : 48.0 kHz Frame rate : 31.250 FPS (1536 SPF) Compression mode : Lossy Stream size : 251 MiB (6%) Title : Italian Language : Italian Service kind : Complete Main Default : No Forced : No Audio #7 ID : 8 Format : E-AC-3 Format/Info : Enhanced AC-3 Commercial name : Dolby Digital Plus Codec ID : A_EAC3 Duration : 54 min 53 s Bit rate mode : Constant Bit rate : 640 kb/s Channel(s) : 6 channels Channel layout : L R C LFE Ls Rs Sampling rate : 48.0 kHz Frame rate : 31.250 FPS (1536 SPF) Compression mode : Lossy Stream size : 251 MiB (6%) Title : Japanese Language : Japanese Service kind : Complete Main Default : No Forced : No Audio #8 ID : 9 Format : E-AC-3 Format/Info : Enhanced AC-3 Commercial name : Dolby Digital Plus Codec ID : A_EAC3 Duration : 54 min 53 s Bit rate mode : Constant Bit rate : 640 kb/s Channel(s) : 6 channels Channel layout : L R C LFE Ls Rs Sampling rate : 48.0 kHz Frame rate : 31.250 FPS (1536 SPF) Compression mode : Lossy Stream size : 251 MiB (6%) Title : Spanish Language : Spanish Service kind : Complete Main Default : No Forced : No Text #1 ID : 10 Format : UTF-8 Codec ID : S_TEXT/UTF8 Codec ID/Info : UTF-8 Plain Text Duration : 52 min 24 s Bit rate : 97 b/s Count of elements : 663 Stream size : 37.2 KiB (0%) Title : Arabic Language : Arabic Default : No Forced : No Text #2 ID : 11 Format : UTF-8 Codec ID : S_TEXT/UTF8 Codec ID/Info : UTF-8 Plain Text Duration : 53 min 4 s Bit rate : 54 b/s Count of elements : 663 Stream size : 21.2 KiB (0%) Title : Brazilian Portuguese Language : Portuguese Default : No Forced : No Text #3 ID : 12 Format : UTF-8 Codec ID : S_TEXT/UTF8 Codec ID/Info : UTF-8 Plain Text Duration : 52 min 55 s Bit rate : 54 b/s Count of elements : 745 Stream size : 21.1 KiB (0%) Title : Czech Language : Czech Default : No Forced : No Text #4 ID : 13 Format : UTF-8 Codec ID : S_TEXT/UTF8 Codec ID/Info : UTF-8 Plain Text Duration : 53 min 4 s Bit rate : 47 b/s Count of elements : 664 Stream size : 18.6 KiB (0%) Title : Danish Language : Danish Default : No Forced : No Text #5 ID : 14 Format : UTF-8 Codec ID : S_TEXT/UTF8 Codec ID/Info : UTF-8 Plain Text Duration : 53 min 4 s Bit rate : 52 b/s Count of elements : 631 Stream size : 20.6 KiB (0%) Title : Dutch Language : Dutch Default : No Forced : No Text #6 ID : 15 Format : UTF-8 Codec ID : S_TEXT/UTF8 Codec ID/Info : UTF-8 Plain Text Duration : 53 min 49 s Bit rate : 60 b/s Count of elements : 726 Stream size : 23.8 KiB (0%) Title : English Language : English Default : Yes Forced : No Text #7 ID : 16 Format : UTF-8 Codec ID : S_TEXT/UTF8 Codec ID/Info : UTF-8 Plain Text Duration : 52 min 24 s Bit rate : 52 b/s Count of elements : 647 Stream size : 20.0 KiB (0%) Title : European Spanish Language : Spanish Default : No Forced : No Text #8 ID : 17 Format : UTF-8 Codec ID : S_TEXT/UTF8 Codec ID/Info : UTF-8 Plain Text Duration : 53 min 4 s Bit rate : 51 b/s Count of elements : 470 Stream size : 20.2 KiB (0%) Title : Finnish Language : Finnish Default : No Forced : No Text #9 ID : 18 Format : UTF-8 Codec ID : S_TEXT/UTF8 Codec ID/Info : UTF-8 Plain Text Duration : 52 min 24 s Bit rate : 48 b/s Count of elements : 646 Stream size : 18.6 KiB (0%) Title : French Language : French Default : No Forced : No Text #10 ID : 19 Format : UTF-8 Codec ID : S_TEXT/UTF8 Codec ID/Info : UTF-8 Plain Text Duration : 52 min 24 s Bit rate : 55 b/s Count of elements : 663 Stream size : 21.5 KiB (0%) Title : German Language : German Default : No Forced : No Text #11 ID : 20 Format : UTF-8 Codec ID : S_TEXT/UTF8 Codec ID/Info : UTF-8 Plain Text Duration : 52 min 58 s Bit rate : 89 b/s Count of elements : 718 Stream size : 34.8 KiB (0%) Title : Greek Language : Greek Default : No Forced : No Text #12 ID : 21 Format : UTF-8 Codec ID : S_TEXT/UTF8 Codec ID/Info : UTF-8 Plain Text Duration : 52 min 55 s Bit rate : 92 b/s Count of elements : 729 Stream size : 35.8 KiB (0%) Title : Hebrew Language : Hebrew Default : No Forced : No Text #13 ID : 22 Format : UTF-8 Codec ID : S_TEXT/UTF8 Codec ID/Info : UTF-8 Plain Text Duration : 52 min 58 s Bit rate : 54 b/s Count of elements : 756 Stream size : 21.3 KiB (0%) Title : Hungarian Language : Hungarian Default : No Forced : No Text #14 ID : 23 Format : UTF-8 Codec ID : S_TEXT/UTF8 Codec ID/Info : UTF-8 Plain Text Duration : 53 min 4 s Bit rate : 57 b/s Count of elements : 647 Stream size : 22.3 KiB (0%) Title : Icelandic Default : No Forced : No Text #15 ID : 24 Format : UTF-8 Codec ID : S_TEXT/UTF8 Codec ID/Info : UTF-8 Plain Text Duration : 52 min 55 s Bit rate : 50 b/s Count of elements : 749 Stream size : 19.6 KiB (0%) Title : Indonesian Language : Indonesian Default : No Forced : No Text #16 ID : 25 Format : UTF-8 Codec ID : S_TEXT/UTF8 Codec ID/Info : UTF-8 Plain Text Duration : 52 min 24 s Bit rate : 56 b/s Count of elements : 663 Stream size : 21.5 KiB (0%) Title : Italian Language : Italian Default : No Forced : No Text #17 ID : 26 Format : UTF-8 Codec ID : S_TEXT/UTF8 Codec ID/Info : UTF-8 Plain Text Duration : 52 min 55 s Bit rate : 53 b/s Count of elements : 646 Stream size : 20.7 KiB (0%) Title : Japanese Language : Japanese Default : No Forced : No Text #18 ID : 27 Format : UTF-8 Codec ID : S_TEXT/UTF8 Codec ID/Info : UTF-8 Plain Text Duration : 52 min 24 s Bit rate : 72 b/s Count of elements : 663 Stream size : 27.8 KiB (0%) Title : Korean Language : Korean Default : No Forced : No Text #19 ID : 28 Format : UTF-8 Codec ID : S_TEXT/UTF8 Codec ID/Info : UTF-8 Plain Text Duration : 53 min 4 s Bit rate : 48 b/s Count of elements : 654 Stream size : 18.9 KiB (0%) Title : Norwegian Language : Norwegian Default : No Forced : No Text #20 ID : 29 Format : UTF-8 Codec ID : S_TEXT/UTF8 Codec ID/Info : UTF-8 Plain Text Duration : 1 min 26 s Bit rate : 75 b/s Count of elements : 21 Stream size : 816 Bytes (0%) Title : English Forced Language : English Default : No Forced : No Text #21 ID : 30 Format : UTF-8 Codec ID : S_TEXT/UTF8 Codec ID/Info : UTF-8 Plain Text Duration : 3 s 921 ms Bit rate : 59 b/s Count of elements : 1 Stream size : 29.0 Bytes (0%) Title : Spanish - Spain Forced Language : Spanish Default : No Forced : No Text #22 ID : 31 Format : UTF-8 Codec ID : S_TEXT/UTF8 Codec ID/Info : UTF-8 Plain Text Duration : 41 min 14 s Bit rate : 3 b/s Count of elements : 24 Stream size : 988 Bytes (0%) Title : German Forced Language : German Default : No Forced : No Text #23 ID : 32 Format : UTF-8 Codec ID : S_TEXT/UTF8 Codec ID/Info : UTF-8 Plain Text Duration : 52 min 8 s Bit rate : 3 b/s Count of elements : 29 Stream size : 1.22 KiB (0%) Title : Japanese Forced Language : Japanese Default : No Forced : No Text #24 ID : 33 Format : UTF-8 Codec ID : S_TEXT/UTF8 Codec ID/Info : UTF-8 Plain Text Duration : 40 min 34 s Bit rate : 2 b/s Count of elements : 23 Stream size : 889 Bytes (0%) Title : French Forced Language : French Default : No Forced : No Text #25 ID : 34 Format : UTF-8 Codec ID : S_TEXT/UTF8 Codec ID/Info : UTF-8 Plain Text Duration : 21 min 1 s Bit rate : 5 b/s Count of elements : 22 Stream size : 898 Bytes (0%) Title : Italian Forced Language : Italian Default : No Forced : No Text #26 ID : 35 Format : UTF-8 Codec ID : S_TEXT/UTF8 Codec ID/Info : UTF-8 Plain Text Duration : 21 min 1 s Bit rate : 5 b/s Count of elements : 22 Stream size : 937 Bytes (0%) Title : Portuguese - Brazil Forced Language : Portuguese Default : No Forced : No Text #27 ID : 36 Format : UTF-8 Codec ID : S_TEXT/UTF8 Codec ID/Info : UTF-8 Plain Text Duration : 52 min 55 s Bit rate : 49 b/s Count of elements : 691 Stream size : 19.2 KiB (0%) Title : Polish Language : Polish Default : No Forced : No Text #28 ID : 37 Format : UTF-8 Codec ID : S_TEXT/UTF8 Codec ID/Info : UTF-8 Plain Text Duration : 53 min 4 s Bit rate : 56 b/s Count of elements : 664 Stream size : 22.0 KiB (0%) Title : Portuguese Language : Portuguese Default : No Forced : No Text #29 ID : 38 Format : UTF-8 Codec ID : S_TEXT/UTF8 Codec ID/Info : UTF-8 Plain Text Duration : 52 min 55 s Bit rate : 61 b/s Count of elements : 713 Stream size : 23.8 KiB (0%) Title : Romanian Language : Romanian Default : No Forced : No Text #30 ID : 39 Format : UTF-8 Codec ID : S_TEXT/UTF8 Codec ID/Info : UTF-8 Plain Text Duration : 52 min 55 s Bit rate : 84 b/s Count of elements : 663 Stream size : 32.9 KiB (0%) Title : Russian Language : Russian Default : No Forced : No Text #31 ID : 40 Format : UTF-8 Codec ID : S_TEXT/UTF8 Codec ID/Info : UTF-8 Plain Text Duration : 52 min 24 s Bit rate : 59 b/s Count of elements : 663 Stream size : 23.0 KiB (0%) Title : Simplified Chinese Default : No Forced : No Text #32 ID : 41 Format : UTF-8 Codec ID : S_TEXT/UTF8 Codec ID/Info : UTF-8 Plain Text Duration : 52 min 29 s Bit rate : 54 b/s Count of elements : 643 Stream size : 21.0 KiB (0%) Title : Spanish Language : Spanish Default : No Forced : No Text #33 ID : 42 Format : UTF-8 Codec ID : S_TEXT/UTF8 Codec ID/Info : UTF-8 Plain Text Duration : 53 min 4 s Bit rate : 52 b/s Count of elements : 646 Stream size : 20.4 KiB (0%) Title : Swedish Language : Swedish Default : No Forced : No Text #34 ID : 43 Format : UTF-8 Codec ID : S_TEXT/UTF8 Codec ID/Info : UTF-8 Plain Text Duration : 52 min 55 s Bit rate : 150 b/s Count of elements : 758 Stream size : 58.4 KiB (0%) Title : Thai Language : Thai Default : No Forced : No Text #35 ID : 44 Format : UTF-8 Codec ID : S_TEXT/UTF8 Codec ID/Info : UTF-8 Plain Text Duration : 52 min 24 s Bit rate : 54 b/s Count of elements : 663 Stream size : 20.8 KiB (0%) Title : Traditional Chinese Default : No Forced : No Text #36 ID : 45 Format : UTF-8 Codec ID : S_TEXT/UTF8 Codec ID/Info : UTF-8 Plain Text Duration : 52 min 55 s Bit rate : 56 b/s Count of elements : 684 Stream size : 21.9 KiB (0%) Title : Turkish Language : Turkish Default : No Forced : No Text #37 ID : 46 Format : UTF-8 Codec ID : S_TEXT/UTF8 Codec ID/Info : UTF-8 Plain Text Duration : 52 min 55 s Bit rate : 72 b/s Count of elements : 753 Stream size : 27.9 KiB (0%) Title : Vietnamese Language : Vietnamese Default : No Forced : No Text #38 ID : 47 Format : UTF-8 Codec ID : S_TEXT/UTF8 Codec ID/Info : UTF-8 Plain Text Duration : 52 min 55 s Bit rate : 72 b/s Count of elements : 754 Stream size : 28.0 KiB (0%) Language : Vietnamese Default : No Forced : No
    [​IMG] [​IMG] [​IMG] [​IMG] [​IMG] [​IMG] [​IMG] [​IMG]




    Phim từ Netflix , chuẩn HEVC , đa ngôn ngữ , đa phụ đề (cả Phụ đề Việt)

    Link tải

    Nhấn nút Cảm ơn (dưới chân bài) để thấy link!


    Các phim khác từ Netflix
    http://www.hdvietnam.com/tags/adm820-nf/



     
    mephim321, pmega2010, Abuw and 55 others like this.
  2. adm820

    adm820 Moderator Thành viên BQT

    Tham gia ngày:
    1/12/10
    Bài viết:
    7,211
    Đã được cảm ơn:
    165,915
    Giới tính:
    Nam
    UPdate S05E05
     
  3. apolo4002

    apolo4002 Well-Known Member

    Tham gia ngày:
    14/1/18
    Bài viết:
    160
    Đã được cảm ơn:
    484
    Giới tính:
    Nữ
    ss5 có x264 ko bác ?
     
  4. adm820

    adm820 Moderator Thành viên BQT

    Tham gia ngày:
    1/12/10
    Bài viết:
    7,211
    Đã được cảm ơn:
    165,915
    Giới tính:
    Nam
    hevc cho hình ảnh đẹp hơn , khi cùng 1 birate
     
    apolo4002 cảm ơn bài này.
  5. apolo4002

    apolo4002 Well-Known Member

    Tham gia ngày:
    14/1/18
    Bài viết:
    160
    Đã được cảm ơn:
    484
    Giới tính:
    Nữ
    card màn hình máy chắc quá cũ nên xem h265 vừa bể hình màn hình vừa giật.
     
  6. ahipsa

    ahipsa Well-Known Member

    Tham gia ngày:
    24/2/19
    Bài viết:
    444
    Đã được cảm ơn:
    340
    Giới tính:
    Nam
    Nghề nghiệp:
    SINH VIÊN
    Nơi ở:
    BÌNH DƯƠNG
    Cảm ơn ạ!
     
  7. Call Me Tom

    Call Me Tom New Member

    Tham gia ngày:
    5/12/17
    Bài viết:
    10
    Đã được cảm ơn:
    2
    Bác có bản Season 4 và Season 5 x264 không ạ?
     
  8. Call Me Tom

    Call Me Tom New Member

    Tham gia ngày:
    5/12/17
    Bài viết:
    10
    Đã được cảm ơn:
    2
    Bác có bản Season 4 và Season 5 x264 không ạ?
     
  9. tiensh98

    tiensh98 Active Member

    Tham gia ngày:
    22/10/17
    Bài viết:
    500
    Đã được cảm ơn:
    202
    Giới tính:
    Nam
    ở nhà e quả laptop cùi rách chục năm rồi , ổ cứng nát bét mà HEVC vẫn đc mà sao có bác kêu giật nhể :3
     
  10. adm820

    adm820 Moderator Thành viên BQT

    Tham gia ngày:
    1/12/10
    Bài viết:
    7,211
    Đã được cảm ơn:
    165,915
    Giới tính:
    Nam
    Cài MPC , có trong bộ K lite mega codec , chơi đc hết
     
  11. adm820

    adm820 Moderator Thành viên BQT

    Tham gia ngày:
    1/12/10
    Bài viết:
    7,211
    Đã được cảm ơn:
    165,915
    Giới tính:
    Nam
    Netflix việt nam update chậm hơn khu vực khác , bù lại sẽ có phụ đề việt
     
  12. children000

    children000 New Member

    Tham gia ngày:
    20/8/12
    Bài viết:
    1
    Đã được cảm ơn:
    0
    Check lại link bác ơi, die hết rồi.
     
  13. hoatieu2

    hoatieu2 Member

    Tham gia ngày:
    14/6/10
    Bài viết:
    61
    Đã được cảm ơn:
    27
    đang download tới season3 thì toàn bộ link die hết rồi bác chủ ơi
     
  14. adm820

    adm820 Moderator Thành viên BQT

    Tham gia ngày:
    1/12/10
    Bài viết:
    7,211
    Đã được cảm ơn:
    165,915
    Giới tính:
    Nam
    Check lại xem
     
    hoatieu2 cảm ơn bài này.
  15. hoatieu2

    hoatieu2 Member

    Tham gia ngày:
    14/6/10
    Bài viết:
    61
    Đã được cảm ơn:
    27
    ok, link download có lại rồi, thanks bác chủ nhiều.
     
  16. hoatieu2

    hoatieu2 Member

    Tham gia ngày:
    14/6/10
    Bài viết:
    61
    Đã được cảm ơn:
    27
    ok, link download có lại rồi, thanks bác chủ nhiều.
     
  17. adm820

    adm820 Moderator Thành viên BQT

    Tham gia ngày:
    1/12/10
    Bài viết:
    7,211
    Đã được cảm ơn:
    165,915
    Giới tính:
    Nam
    update S05E06
     
    Call Me Tom cảm ơn bài này.
  18. tiensh98

    tiensh98 Active Member

    Tham gia ngày:
    22/10/17
    Bài viết:
    500
    Đã được cảm ơn:
    202
    Giới tính:
    Nam
    Mong bác có thể kéo bộ
    Live Up to Your Name bản Netflix ạ , tks bác nhiều
     

Chia sẻ trang này