[Hài hước] Para Para Sakura 2001 1080p NF WEB-DL DDP2.0 x264 ~ Hoa anh đào lãng mạn (Vietsub)

Thảo luận trong 'WEB-DL, HDTV' bắt đầu bởi adm820, 31/12/19.

Tags
  1. adm820

    adm820 Moderator Thành viên BQT

    Tham gia ngày:
    1/12/10
    Bài viết:
    7,119
    Đã được cảm ơn:
    163,515
    Giới tính:
    Nam
    [​IMG]

    upload_2019-12-31_14-36-56.png

    Mã:
    General
    Unique ID                   : 68372956381710810553226031183656914119 (0x3370270438FCFDB05C3FBB91C54C0CC7)
    
    
    	

    Complete name : C:\Users\Administrator\Documents\Para.Para.Sakura.2001.1080p.NF.WEB-DL.DDP2.0.x264-Ao\Para.Para.Sakura.2001.1080p.NF.WEB-DL.DDP2.0.x264-Ao.mkv

    Format : Matroska Format version : Version 4 File size : 5.23 GiB Duration : 1 h 36 min Overall bit rate mode : Variable Overall bit rate : 7 752 kb/s Encoded date : UTC 2001-01-01 00:00:00 Writing application : mkvmerge v34.0.0 ('Sight and Seen') 64-bit Writing library : libebml v1.3.9 + libmatroska v1.5.2 Video ID : 1 Format : AVC Format/Info : Advanced Video Codec Format profile : Main@L4 Format settings : CABAC / 3 Ref Frames Format settings, CABAC : Yes Format settings, Reference : 3 frames Codec ID : V_MPEG4/ISO/AVC Duration : 1 h 36 min Bit rate mode : Variable Bit rate : 7 500 kb/s Maximum bit rate : 11.2 Mb/s Width : 1 920 pixels Height : 1 080 pixels Display aspect ratio : 16:9 Frame rate mode : Constant Frame rate : 24.000 FPS Color space : YUV Chroma subsampling : 4:2:0 Bit depth : 8 bits Scan type : Progressive Bits/(Pixel*Frame) : 0.151 Stream size : 5.06 GiB (97%) Writing library : x264 core 148 r2715 7e75228 Encoding settings : cabac=1 / ref=3 / deblock=1:0:0 / analyse=0x1:0x111 / me=umh / subme=10 / psy=1 / psy_rd=1.00:0.00 / mixed_ref=1 / me_range=24 / chroma_me=1 / trellis=2 / 8x8dct=0 / cqm=0 / deadzone=21,11 / fast_pskip=1 / chroma_qp_offset=-2 / threads=8 / lookahead_threads=1 / sliced_threads=0 / nr=0 / decimate=1 / interlaced=0 / bluray_compat=0 / stitchable=1 / constrained_intra=0 / bframes=2 / b_pyramid=0 / b_adapt=2 / b_bias=0 / direct=3 / weightb=1 / open_gop=0 / weightp=2 / keyint=250 / keyint_min=24 / scenecut=0 / intra_refresh=0 / rc_lookahead=48 / rc=2pass / mbtree=1 / bitrate=7500 / ratetol=1.0 / qcomp=0.50 / qpmin=6 / qpmax=51 / qpstep=4 / cplxblur=20.0 / qblur=0.5 / vbv_maxrate=11250 / vbv_bufsize=15000 / nal_hrd=vbr / filler=0 / ip_ratio=1.40 / aq=1:1.00 Default : Yes Forced : No Audio #1 ID : 2 Format : E-AC-3 Format/Info : Enhanced AC-3 Commercial name : Dolby Digital Plus Codec ID : A_EAC3 Duration : 1 h 36 min Bit rate mode : Constant Bit rate : 128 kb/s Channel(s) : 2 channels Channel layout : L R Sampling rate : 48.0 kHz Frame rate : 31.250 FPS (1536 SPF) Compression mode : Lossy Stream size : 88.4 MiB (2%) Title : Mandarin Language : Chinese Service kind : Complete Main Default : Yes Forced : No Audio #2 ID : 3 Format : E-AC-3 Format/Info : Enhanced AC-3 Commercial name : Dolby Digital Plus Codec ID : A_EAC3 Duration : 1 h 36 min Bit rate mode : Constant Bit rate : 128 kb/s Channel(s) : 2 channels Channel layout : L R Sampling rate : 48.0 kHz Frame rate : 31.250 FPS (1536 SPF) Compression mode : Lossy Stream size : 88.4 MiB (2%) Title : Cantonese [Original] Language : Chinese Service kind : Complete Main Default : No Forced : No Text #1 ID : 4 Format : UTF-8 Codec ID : S_TEXT/UTF8 Codec ID/Info : UTF-8 Plain Text Duration : 1 h 35 min Bit rate : 53 b/s Count of elements : 1558 Stream size : 37.2 KiB (0%) Title : Traditional Chinese Language : Chinese Default : No Forced : No Text #2 ID : 5 Format : UTF-8 Codec ID : S_TEXT/UTF8 Codec ID/Info : UTF-8 Plain Text Duration : 1 h 35 min Bit rate : 43 b/s Count of elements : 1426 Stream size : 30.3 KiB (0%) Title : English Language : English Default : Yes Forced : No Text #3 ID : 6 Format : UTF-8 Codec ID : S_TEXT/UTF8 Codec ID/Info : UTF-8 Plain Text Duration : 1 h 35 min Bit rate : 67 b/s Count of elements : 1501 Stream size : 46.8 KiB (0%) Title : Vietnamese Language : Vietnamese Default : No Forced : No
    [​IMG] [​IMG] [​IMG] [​IMG]


    Bộ phim đc tải về từ Netflix có sẵn sub việt

    Link tải


    Nhấn nút Cảm ơn (dưới chân bài) để thấy link!





    Các phim khác từ Netflix

    http://www.hdvietnam.com/tags/adm820-nf/


     

Chia sẻ trang này