[Hài Kịch] TNPBN107 - Thể Dục Thẩm Mỹ [DVDrip h264 DD5.1] - Hoài Tâm Chí Tài Việt Hương Thuý Nga & .

Thảo luận trong 'mHD, SD' bắt đầu bởi victor77, 19/3/13.

  1. victor77

    victor77 Active Member

    Tham gia ngày:
    15/5/09
    Bài viết:
    4,960
    Đã được thích:
    45
    Điểm thành tích:
    38
    Tiền:
    1,324 CR
    SS:

    [​IMG]

    Info:

    General
    Unique ID : 219643642696138499896472436336604392961 (0xA53DD3ACDA622FF98E181BC5302AAE01)
    Complete name : The duc tham my [DVDrip H264 DD5.1] - TNPBN107.mkv
    Format : Matroska
    Format version : Version 4 / Version 2
    File size : 596 MiB
    Duration : 33mn 4s
    Overall bit rate mode : Variable
    Overall bit rate : 2 518 Kbps
    Encoded date : UTC 2013-03-18 09:21:03
    Writing application : mkvmerge v6.1.0 ('Old Devil') built on Mar 2 2013 14:32:37
    Writing library : libebml v1.3.0 + libmatroska v1.4.0

    Video
    ID : 2
    Format : AVC
    Format/Info : Advanced Video Codec
    Format profile : High@L4.1
    Format settings, CABAC : Yes
    Format settings, ReFrames : 3 frames
    Codec ID : V_MPEG4/ISO/AVC
    Duration : 33mn 4s
    Bit rate mode : Variable
    Bit rate : 2 068 Kbps
    Maximum bit rate : 40.0 Mbps
    Width : 720 pixels
    Height : 400 pixels
    Display aspect ratio : 16:9
    Frame rate : 29.970 fps
    Color space : YUV
    Chroma subsampling : 4:2:0
    Bit depth : 8 bits
    Scan type : Progressive
    Bits/(Pixel*Frame) : 0.240
    Stream size : 478 MiB (80%)
    Writing library : x264 core 129 r2245 bc13772
    Language : English
    Default : Yes
    Forced : No

    Audio
    ID : 1
    Format : AC-3
    Format/Info : Audio Coding 3
    Mode extension : CM (complete main)
    Format settings, Endianness : Big
    Codec ID : A_AC3
    Duration : 33mn 4s
    Bit rate mode : Constant
    Bit rate : 448 Kbps
    Channel(s) : 6 channels
    Channel positions : Front: L C R, Side: L R, LFE
    Sampling rate : 48.0 KHz
    Bit depth : 16 bits
    Compression mode : Lossy
    Stream size : 106 MiB (18%)
    Default : Yes
    Forced : No

    Link:

    [DOWNBOX][hide]Fshare - Dich vu chia se, luu tru du lieu mien phi tot nhat[/hide][/DOWNBOX]
     

Chia sẻ trang này