[Fshare] [Hài-Kinh Dị] Parasite 2019 Vie 720p BluRay DD-EX5.1 x264-LoRD ~ Ký sinh trùng

Thảo luận trong 'Phim có audio Việt' bắt đầu bởi 1131411314, 11/2/20.

  1. 1131411314

    1131411314 Well-Known Member

    Tham gia ngày:
    19/3/12
    Bài viết:
    915
    Đã được cảm ơn:
    31,003
    [Hài-Kinh Dị] Parasite 2019 Vie 720p BluRay DD-EX5.1 x264-LoRD ~ Ký sinh trùng
    Thuyết Minh - Sub Việt

    IMDB Ratings: 8.6/10 from 208,568
    Đạo diễn: Bong Joon-ho
    Các nhà sản xuất: Bong Joon-ho, Kwak Sin-ae, Yang-kwon Moon, Jang Yeong-hwa

    [​IMG]

    Ký sinh trùng (Hangul: 기생충; Romaja: Gisaengchung) là một bộ phim điện ảnh hài kịch đen của Hàn Quốc, được ra mắt công chúng vào năm 2019 do Bong Joon-ho làm đạo diễn. Phim có sự tham gia diễn xuất của dàn diễn viên thực lực: Song Kang-ho, Lee Sun-kyun, Cho Yeo-jeong, Choi Woo-sikPark So-dam. Tác phẩm đã giành chiến thắng, đoạt giải thưởng Cành cọ vàng danh giá khi tham dự Liên hoan phim Cannes 2019 tại Pháp và qua đó chính thức trở thành bộ phim Hàn Quốc đầu tiên trong lịch sử có vinh dự được nhận giải thưởng này.

    Tháng 2 năm 2020, phim này giành giải phim hay nhất và 3 giải khác tại lễ trao giải Oscar lần thứ 92, trở thành phim ngoại ngữ đầu tiên đoạt giải này.


    [​IMG]




    INFORMATION
    Mã:
    File size                      : 6.24 GiB
    Duration                       : 2h 12mn
    Overall bit rate               : 6 767 Kbps
    
    
    Video
    ID                             : 2
    Format                         : AVC
    Format/Info                    : Advanced Video Codec
    Format profile                 : High@L4.1
    Duration                       : 2h 12mn
    Bit rate                       : 6 000 Kbps
    Width                          : 1 280 pixels
    Height                         : 536 pixels
    Display aspect ratio           : 2.40:1
    Frame rate mode                : Constant
    Frame rate                     : 23.976 fps
    Color space                    : YUV
    Chroma subsampling             : 4:2:0
    Bit depth                      : 8 bits
    Scan type                      : Progressive
    Bits/(Pixel*Frame)             : 0.365
    Stream size                    : 5.41 GiB (87%)
    Audio #1
    ID                             : 1
    Format                         : MPEG Audio
    Format version                 : Version 1
    Format profile                 : Layer 3
    Mode                           : Joint stereo
    Codec ID                       : A_MPEG/L3
    Codec ID/Hint                  : MP3
    Duration                       : 2h 12mn
    Bit rate mode                  : Constant
    Bit rate                       : 128 Kbps
    Channel(s)                     : 2 channels
    Sampling rate                  : 44.1 KHz
    Compression mode               : Lossy
    Delay relative to video        : 5ms
    Stream size                    : 121 MiB (2%)
    Title                          : BaDuy
    Language                       : Vietnamese
    Default                        : Yes
    Audio #2
    ID                             : 3
    Format                         : AC-3
    Format/Info                    : Audio Coding 3
    Mode extension                 : CM (complete main)
    Format settings, Endianness    : Big
    Codec ID                       : A_AC3
    Duration                       : 2h 12mn
    Bit rate mode                  : Constant
    Bit rate                       : 640 Kbps
    Channel(s)                     : 6 channels
    Channel positions              : Front: L C R, Side: L R, LFE
    Sampling rate                  : 48.0 KHz
    Compression mode               : Lossy
    Stream size                    : 604 MiB (9%)
    Language                       : Korean
    Text #1
    ID                             : 4
    Format                         : UTF-8
    Codec ID                       : S_TEXT/UTF8
    Codec ID/Info                  : UTF-8 Plain Text
    Language                       : Vietnamese
    

    DOWNLOAD

    Nhấn nút Cảm ơn (dưới chân bài) để thấy link!


    Bản 1080p Thuyết Minh
    [Hài-Kinh Dị] Parasite 2019 Vie 1080p x264 DTS-CHD ~ Ký sinh trùng



    TỔNG HỢP PHIM THUYẾT MINH KINH ĐIỂN
     
    Chỉnh sửa cuối: 17/2/20
  2. thanhphatcth52

    thanhphatcth52 New Member

    Tham gia ngày:
    14/4/12
    Bài viết:
    28
    Đã được cảm ơn:
    14
    Giới tính:
    Nam
  3. adm820

    adm820 Moderator Thành viên BQT

    Tham gia ngày:
    1/12/10
    Bài viết:
    12,301
    Đã được cảm ơn:
    252,547
    Giới tính:
    Nam
    chủ thớt ko dùng nick clone đẩy bài nhé , cảm ơn\\

    upload_2020-2-12_12-13-32.png
     
    kendungo, hupchaopr and 1131411314 like this.
  4. hung6969

    hung6969 New Member

    Tham gia ngày:
    12/12/10
    Bài viết:
    26
    Đã được cảm ơn:
    16
    10 Gb nặng quá
     
    kendungo cảm ơn bài này.
  5. 1131411314

    1131411314 Well-Known Member

    Tham gia ngày:
    19/3/12
    Bài viết:
    915
    Đã được cảm ơn:
    31,003
    10gb là bản nhẹ nhất rồi
     
  6. hung6969

    hung6969 New Member

    Tham gia ngày:
    12/12/10
    Bài viết:
    26
    Đã được cảm ơn:
    16
    Add kiếm bản 5 Gb rồi ghép thuyết minh vào thì hay quá :)
     
  7. tinarc

    tinarc New Member

    Tham gia ngày:
    11/11/20
    Bài viết:
    3
    Đã được cảm ơn:
    0
    cám ơn bạn
     
  8. 1131411314

    1131411314 Well-Known Member

    Tham gia ngày:
    19/3/12
    Bài viết:
    915
    Đã được cảm ơn:
    31,003
    Tập tin sắp bị xóa 26/12
     

Chia sẻ trang này