[Hài] Kung.Pow.Enter.the.Fist.2002.1080i.HDTV.MPEG2 - Kungfu bò sữa

Thảo luận trong 'WEB-DL, HDTV' bắt đầu bởi thainhi_vn, 21/8/16.

  1. thainhi_vn

    thainhi_vn Well-Known Member

    Tham gia ngày:
    10/2/12
    Bài viết:
    586
    Đã được cảm ơn:
    683
    Nơi ở:
    Vietnam
    Kungfu bò sữa
    (Kung Pow Enter the Fist) 2002


    [​IMG]

    Sản xuất: Steve Oedekerk
    Kịch bản: Steve Oedekerk

    Đạo diễn: Steve Oedekerk



    Các diễn viên chính
    Steve Oedekerk ...... The Chosen One

    Chuyện phim kể về cuộc phiêu lưu của một anh chàng có biệt danh là The Chosen One trên đường tầm sư học võ và báo thù những kẻ năm xưa từng giết cha mẹ của anh. Phim được làm nhài theo nhiều phim võ thuật lừng danh trước đó, dựa trên nhiều cảnh quay cũ của phim Hổ hạc song hình (Savage Killers) 1976.


    [​IMG]



    Mã:
    
    
    General
    
    
    Format  : Matroska
    Format version  : Version 4 / Version 2
    File size  : 7.52 GiB
    Duration  : 1 h 21 min
    Overall bit rate mode  : Variable
    Overall bit rate  : 13.2 Mb/s
    Video
    ID  : 2
    Format  : MPEG Video
    Format version  : Version 2
    Format profile  : Main@High
    Format settings, BVOP  : Yes
    Format settings, Matrix  : Default
    Format settings, GOP  : Variable
    Codec ID  : V_MPEG2
    Codec ID/Info  : MPEG 1 or 2 Video
    Duration  : 1 h 21 min
    Bit rate mode  : Variable
    Bit rate  : 12.8 Mb/s
    Maximum bit rate  : 18.0 Mb/s
    Width  : 1 920 pixels
    Height  : 1 080 pixels
    Display aspect ratio  : 16:9
    Frame rate mode  : Variable
    Frame rate  : 24.316 FPS
    Original frame rate  : 29.970 (30000/1001) FPS
    Color space  : YUV
    Chroma subsampling  : 4:2:0
    Bit depth  : 8 bits
    Compression mode  : Lossy
    Bits/(Pixel*Frame)  : 0.255
    Time code of first frame  : 00:00:00;00
    Time code source  : Group of pictures header
    GOP, Open/Closed  : Open
    GOP, Open/Closed of first frame  : Closed
    Stream size  : 7.30 GiB (97%)
    Title  : RG Uralmix
    Language  : English
    Default  : Yes
    Forced  : No
    Audio
    ID  : 3
    Format  : AC-3
    Format/Info  : Audio Coding 3
    Mode extension  : CM (complete main)
    Format settings, Endianness  : Big
    Codec ID  : A_AC3
    Duration  : 1 h 21 min
    Bit rate mode  : Constant
    Bit rate  : 384 kb/s
    Channel(s)  : 6 channels
    Channel positions  : Front: L C R, Side: L R, LFE
    Sampling rate  : 48.0 kHz
    Frame rate  : 31.250 FPS (1536 spf)
    Compression mode  : Lossy
    Stream size  : 224 MiB (3%)
    Language  : English
    Default  : No
    Forced  : No
    Text
    ID  : 1
    Format  : ASS
    Codec ID  : S_TEXT/ASS
    Codec ID/Info  : Advanced Sub Station Alpha
    Duration  : 1 h 21 min
    Bit rate  : 117 b/s
    Count of elements  : 938
    Compression mode  : Lossless
    Stream size  : 69.9 KiB (0%)
    Language  : Chinese
    Default  : Yes
    Forced  : No
    
     
    Chỉnh sửa cuối: 21/8/16
    patamuf, kiencon_it, krayken and 2 others like this.
  2. boylak21

    boylak21 Well-Known Member

    Tham gia ngày:
    27/1/11
    Bài viết:
    530
    Đã được cảm ơn:
    1,795
    sao không thấy link vậy bạn? phim này ngày xưa thích lắm, coi cười đau bụng :)
     
  3. boylak21

    boylak21 Well-Known Member

    Tham gia ngày:
    27/1/11
    Bài viết:
    530
    Đã được cảm ơn:
    1,795
    ặc, coi kỹ lại mới thấy link, sorry bạn nhé! phim này có bạn nào có audio việt ko?
     

Chia sẻ trang này