[Hài - Lãng mạn] Khoobsurat 2014 1080p NF WEB-DL ~ Quý cô xinh đẹp - Đẳng cấp hoàng gia

Thảo luận trong 'Fshare.vn' bắt đầu bởi hatieupro7, 9/12/18 lúc 11:35.

  1. hatieupro7

    hatieupro7 Well-Known Member

    Tham gia ngày:
    26/9/10
    Bài viết:
    250
    Đã được cảm ơn:
    1,503
    Điểm thành tích:
    93
    Nghề nghiệp:
    OSIN
    Nơi ở:
    Haiphong city
    Web:
    Tiền:
    267 CR
    KHOOBSURAT (2014)
    QUÝ CÔ XINH ĐẸP - ĐẲNG CẤP HOÀNG GIA
    IMDB: https://www.imdb.com/title/tt3554418/


    [​IMG]

    TRAILER


    SCREENSHOTS
    [​IMG]

    NỘI DUNG

    Mã:
    Complete name               : H:\Khoobsurat 2014 1080p NF WEB-DL x264 AC3 5.1 ESub - Hon3yHD\Khoobsurat 2014 1080p NF WEB-DL x264 AC3 5.1 ESub - Hon3yHD.mp4
    Format                      : MPEG-4
    Format profile              : Base Media
    Codec ID                    : isom (isom/iso2/avc1/mp41)
    File size                   : 3.17 GiB
    Duration                    : 2 h 1 min
    Overall bit rate            : 3 734 kb/s
    Writing application         : FlixGrab Plus
    Video
    ID                          : 1
    Format                      : AVC
    Format/Info                 : Advanced Video Codec
    Format profile              : Main@L4
    Format settings, CABAC      : Yes
    Format settings, ReFrames   : 3 frames
    Codec ID                    : avc1
    Codec ID/Info               : Advanced Video Coding
    Duration                    : 2 h 1 min
    Source duration             : 6 min 57 s
    Bit rate                    : 3 344 kb/s
    Width                       : 1 920 pixels
    Height                      : 1 080 pixels
    Display aspect ratio        : 16:9
    Frame rate mode             : Constant
    Frame rate                  : 25.000 FPS
    Color space                 : YUV
    Chroma subsampling          : 4:2:0
    Bit depth                   : 8 bits
    Scan type                   : Progressive
    Bits/(Pixel*Frame)          : 0.065
    Stream size                 : 2.84 GiB (90%)
    Source stream size          : 2.84 GiB (90%)
    mdhd_Duration               : 7289160
    Audio
    ID                          : 2
    Format                      : AC-3
    Format/Info                 : Audio Coding 3
    Mode extension              : CM (complete main)
    Format settings, Endianness : Big
    Codec ID                    : ac-3
    Duration                    : 2 h 1 min
    Bit rate mode               : Constant
    Bit rate                    : 384 kb/s
    Channel(s)                  : 6 channels
    Channel positions           : Front: L C R, Side: L R, LFE
    Sampling rate               : 48.0 kHz
    Frame rate                  : 31.250 FPS (1536 spf)
    Bit depth                   : 16 bits
    Compression mode            : Lossy
    Stream size                 : 334 MiB (10%)
    Language                    : Hindi
    Default                     : Yes
    Alternate group             : 1


    LINK DOWNLOAD

    Nhấn nút Cảm ơn (dưới chân bài) để thấy link!



    VIETSUB BY BMV.Team
    Nhấn nút Cảm ơn (dưới chân bài) để thấy link!



    LINK THƯ MỤC PHIM DO BMV.TEAM LÀM SUB
    https://www.fshare.vn/folder/7F9QOWAEUUHH
    (Các bạn có thể search trên FB hoặc google BMV.Team subscene...)​

    Chúc các bạn xem phim vui vẻ!
    #BMV.Team
    #Bollyw00ds
    #hatieupro
     
    kero2005, vietanh_6, Oilman and 11 others like this.

Chia sẻ trang này