[Hài Tết-1 Link] Vượng Râu (2013) DVD05-Hài Tết Năm 2013

Thảo luận trong 'mHD, SD' bắt đầu bởi quocvuong_vn2004, 11/1/13.

  1. quocvuong_vn2004

    quocvuong_vn2004 New Member

    Tham gia ngày:
    5/2/12
    Bài viết:
    216
    Đã được thích:
    0
    Điểm thành tích:
    0
    Tiền:
    300 CR
    Vượng Râu (2013) DVD05
    Hài Tết 2013





    [​IMG]

    Hài tết Vượng Râu 2013 cũng đã được phát hành. Ngay sau khi xem trailer hai tet 2013 của Mr Vượng Râu (nghệ sĩ Công Vượng), rất nhiều người đã háo hức trông mong chờ đợi vào 1 tiểu phẩm thực sự hay, thực sự hấp dẫn này. Và ngay hôm nay, các bạn đã có thể xem, cảm nhận và đánh giá về tiểu phẩm Hài Tết của Mr. Vượng Râu 2013 này.

    [​IMG]
    HTML:
    Complete name                  :Vuong Rau 2013 DVD5
    Format                         : MPEG-PS
    File size                      : 3.2 GB
    Duration                       : 23mn 5s
    Overall bit rate mode          : Variable
    Overall bit rate               : 6 198 Kbps
    Writing library                : encoded by TMPGEnc Authoring Works 4 Version. 4.0.7.32
    
    Video
    ID                             : 224 (0xE0)
    Format                         : MPEG Video
    Format version                 : Version 2
    Format profile                 : Main@Main
    Format settings, BVOP          : Yes
    Format settings, Matrix        : Custom
    Duration                       : 23mn 5s
    Bit rate mode                  : Variable
    Bit rate                       : 5 691 Kbps
    Maximum bit rate               : 8 000 Kbps
    Width                          : 720 pixels
    Height                         : 480 pixels
    Display aspect ratio           : 16:9
    Frame rate                     : 29.970 fps
    Standard                       : NTSC
    Color space                    : YUV
    Chroma subsampling             : 4:2:0
    Bit depth                      : 8 bits
    Scan type                      : Progressive
    Compression mode               : Lossy
    Bits/(Pixel*Frame)             : 0.549
    Stream size                    : 940 MiB (92%)
    Writing library                : TMPGEnc / Authoring Works 4 Version. 4.0.7.32 Authoring Works 4 Version. 4.0.7.32
    Color primaries                : SMPTE 170M
    Transfer characteristics       : SMPTE 170M
    Matrix coefficients            : SMPTE 170M
    
    Audio
    ID                             : 192 (0xC0)
    Format                         : MPEG Audio
    Format version                 : Version 1
    Format profile                 : Layer 2
    Duration                       : 23mn 5s
    Bit rate mode                  : Constant
    Bit rate                       : 384 Kbps
    Channel(s)                     : 2 channels
    Sampling rate                  : 48.0 KHz
    Compression mode               : Lossy
    Stream size                    : 63.4 MiB (6%)
    
    [​IMG]
    [​IMG] [​IMG] [​IMG] [​IMG]

    [​IMG]
    [video=youtube;4s4bbeAnjXs]http://www.youtube.com/watch?v=4s4bbeAnjXs[/video]

    [​IMG]
     
  2. quocvuong_vn2004

    quocvuong_vn2004 New Member

    Tham gia ngày:
    5/2/12
    Bài viết:
    216
    Đã được thích:
    0
    Điểm thành tích:
    0
    Tiền:
    300 CR
    Ðề: [Hài Tết-1 Link] Vượng Râu (2013) DVD05-Hài Tết Năm 2013

    Không có gì thay đổi ngày mai có bản DVDRip
     
  3. kingofbread

    kingofbread New Member

    Tham gia ngày:
    30/8/12
    Bài viết:
    20
    Đã được thích:
    0
    Điểm thành tích:
    0
    Tiền:
    99 CR
    thank lấy may bạn nhé
     
  4. tvip

    tvip Member

    Tham gia ngày:
    29/3/09
    Bài viết:
    254
    Đã được thích:
    1
    Điểm thành tích:
    18
    Tiền:
    784 CR
    Ðề: [Hài Tết-1 Link] Vượng Râu (2013) DVD05-Hài Tết Năm 2013

    Cảm ơn nhiều, Chúc may mắn
     
  5. DTS_51

    DTS_51 New Member

    Tham gia ngày:
    6/2/12
    Bài viết:
    107
    Đã được thích:
    0
    Điểm thành tích:
    0
    Tiền:
    177 CR
    Ðề: [Hài Tết-1 Link] Vượng Râu (2013) DVD05-Hài Tết Năm 2013

    RIp .........????
     
  6. HongLe

    HongLe Member

    Tham gia ngày:
    3/3/12
    Bài viết:
    50
    Đã được thích:
    0
    Điểm thành tích:
    6
    Tiền:
    578 CR
    Ðề: [Hài Tết-1 Link] Vượng Râu (2013) DVD05-Hài Tết Năm 2013

    Bác chủ ơi sao Display aspect ratio 16:9 mà Screens lại là 4:3 thế
     
  7. thanhvinhpy

    thanhvinhpy Member

    Tham gia ngày:
    15/7/10
    Bài viết:
    199
    Đã được thích:
    2
    Điểm thành tích:
    18
    Tiền:
    1,532 CR
    Ðề: [Hài Tết-1 Link] Vượng Râu (2013) DVD05-Hài Tết Năm 2013

    Sao mình down load không được nhỉ???
     
  8. Chivan

    Chivan Member

    Tham gia ngày:
    23/2/09
    Bài viết:
    678
    Đã được thích:
    1
    Điểm thành tích:
    18
    Tiền:
    1,935 CR
    Ðề: [Hài Tết-1 Link] Vượng Râu (2013) DVD05-Hài Tết Năm 2013

    Nhờ bác chủ xem lại giúp, lỗi không tìm thấy Link?
    Tks
     
  9. tranvanthinh

    tranvanthinh New Member

    Tham gia ngày:
    15/9/09
    Bài viết:
    90
    Đã được thích:
    1
    Điểm thành tích:
    0
    Tiền:
    299 CR
    Ðề: [Hài Tết-1 Link] Vượng Râu (2013) DVD05-Hài Tết Năm 2013

    Có hay không các bác ơi?
     
  10. hieuykhoa

    hieuykhoa Member

    Tham gia ngày:
    16/4/09
    Bài viết:
    328
    Đã được thích:
    0
    Điểm thành tích:
    16
    Tiền:
    700 CR
  11. sykes

    sykes New Member

    Tham gia ngày:
    1/3/10
    Bài viết:
    6
    Đã được thích:
    0
    Điểm thành tích:
    0
    Tiền:
    5 CR
    Ðề: [Hài Tết-1 Link] Vượng Râu (2013) DVD05-Hài Tết Năm 2013

    Cám ơn bác..................
     
  12. thongktnl

    thongktnl Member

    Tham gia ngày:
    28/1/10
    Bài viết:
    79
    Đã được thích:
    0
    Điểm thành tích:
    6
    Tiền:
    196 CR
    Ðề: [Hài Tết-1 Link] Vượng Râu (2013) DVD05-Hài Tết Năm 2013

    Chất lượng thế nào các bác, xem đánh giá phát rồi kéo về, thanks chủ pic
     

Chia sẻ trang này