[Hài Tết | 1 Link] Vượng Râu - 2013

Thảo luận trong 'mHD, SD' bắt đầu bởi bothan1, 14/1/13.

  1. bothan1

    bothan1 New Member

    Tham gia ngày:
    21/9/11
    Bài viết:
    1,788
    Đã được thích:
    0
    Điểm thành tích:
    0
    Tiền:
    255 CR
    Vượng Râu (2013) DVD05-Hài Tết Năm 2013
    [​IMG]
    Mã:
    Complete name                  :Vuong Rau 2013 DVD5
    Format                         : MPEG-PS
    File size                      : 3.2 GB
    Duration                       : 23mn 5s
    Overall bit rate mode          : Variable
    Overall bit rate               : 6 198 Kbps
    Writing library                : encoded by TMPGEnc Authoring Works 4 Version. 4.0.7.32
    
    
    Video
    ID                             : 224 (0xE0)
    Format                         : MPEG Video
    Format version                 : Version 2
    Format profile                 : Main@Main
    Format settings, BVOP          : Yes
    Format settings, Matrix        : Custom
    Duration                       : 23mn 5s
    Bit rate mode                  : Variable
    Bit rate                       : 5 691 Kbps
    Maximum bit rate               : 8 000 Kbps
    Width                          : 720 pixels
    Height                         : 480 pixels
    Display aspect ratio           : 16:9
    Frame rate                     : 29.970 fps
    Standard                       : NTSC
    Color space                    : YUV
    Chroma subsampling             : 4:2:0
    Bit depth                      : 8 bits
    Scan type                      : Progressive
    Compression mode               : Lossy
    Bits/(Pixel*Frame)             : 0.549
    Stream size                    : 940 MiB (92%)
    Writing library                : TMPGEnc / Authoring Works 4 Version. 4.0.7.32 Authoring Works 4 Version. 4.0.7.32
    Color primaries                : SMPTE 170M
    Transfer characteristics       : SMPTE 170M
    Matrix coefficients            : SMPTE 170M
    
    
    Audio
    ID                             : 192 (0xC0)
    Format                         : MPEG Audio
    Format version                 : Version 1
    Format profile                 : Layer 2
    Duration                       : 23mn 5s
    Bit rate mode                  : Constant
    Bit rate                       : 384 Kbps
    Channel(s)                     : 2 channels
    Sampling rate                  : 48.0 KHz
    Compression mode               : Lossy
    Stream size                    : 63.4 MiB (6%)
    [video=youtube;bGZXsM9jlh8]http://www.youtube.com/watch?v=bGZXsM9jlh8[/video]
    Linkdown
    1 Link 3.2 GB
     

Chia sẻ trang này