[Hành Động | 1 link] Torque 2004 720p Blu-ray x264 AC3 Unknown - Bá chủ đường đua

Thảo luận trong 'up.4share.vn' bắt đầu bởi quangnuyen, 20/7/12.

  1. quangnuyen

    quangnuyen Well-Known Member

    Tham gia ngày:
    21/6/12
    Bài viết:
    2,796
    Đã được cảm ơn:
    1,134
    Torque 2004 720p Blu-ray x264 AC3 Unknown - Bá chủ đường đua
    [​IMG]
    Mã:
    General
    Unique ID                        : 202009301230740517547228591373064178040 (0x97F99383B60D075791AD7922DE018978)
    
    
    	

    Complete name : E:\CHD\Torque 2004 720p Blu-ray Trial Audio.mkv

    Format : Matroska File size : 3.20 GiB Duration : 1h 20mn Overall bit rate : 5 688 Kbps Movie name : Torque, Rodando al límite (2004) Encoded date : UTC 2012-05-07 13:21:16 Writing application : mkvmerge v3.4.0 ('Rapunzel') built on May 15 2010 09:38:20 Writing library : libebml v0.8.0 + libmatroska v0.9.0 Video ID : 1 Format : AVC Format/Info : Advanced Video Codec Format profile : High@L4.1 Format settings, CABAC : Yes Format settings, ReFrames : 3 frames Codec ID : V_MPEG4/ISO/AVC Duration : 1h 20mn Bit rate mode : Variable Bit rate : 4 270 Kbps Maximum bit rate : 14.0 Mbps Width : 1 280 pixels Height : 544 pixels Display aspect ratio : 2.35:1 Frame rate : 25.000 fps Original frame rate : 23.976 fps Color space : YUV Chroma subsampling : 4:2:0 Bit depth : 8 bits Scan type : Progressive Bits/(Pixel*Frame) : 0.245 Stream size : 2.45 GiB (77%) Writing library : x264 core 115 r1995 c1e60b9 Encoding settings : cabac=1 / ref=3 / deblock=1:0:0 / analyse=0x3:0x113 / me=hex / subme=7 / psy=1 / psy_rd=1.00:0.00 / mixed_ref=1 / me_range=16 / chroma_me=1 / trellis=1 / 8x8dct=1 / cqm=0 / deadzone=21,11 / fast_pskip=1 / chroma_qp_offset=-2 / threads=3 / sliced_threads=0 / slices=4 / nr=0 / decimate=1 / interlaced=0 / bluray_compat=1 / constrained_intra=0 / bframes=3 / b_pyramid=1 / b_adapt=1 / b_bias=0 / direct=1 / weightb=1 / open_gop=1 / weightp=1 / keyint=24 / keyint_min=2 / scenecut=40 / intra_refresh=0 / rc_lookahead=24 / rc=2pass / mbtree=1 / bitrate=4270 / ratetol=1.0 / qcomp=0.60 / qpmin=0 / qpmax=69 / qpstep=4 / cplxblur=20.0 / qblur=0.5 / vbv_maxrate=14000 / vbv_bufsize=14000 / nal_hrd=vbr / ip_ratio=1.40 / aq=1:1.00 Language : English Audio #1 ID : 2 Format : AC-3 Format/Info : Audio Coding 3 Mode extension : CM (complete main) Codec ID : A_AC3 Duration : 1h 20mn Bit rate mode : Constant Bit rate : 384 Kbps Channel(s) : 6 channels Channel positions : Front: L C R, Side: L R, LFE Sampling rate : 48.0 KHz Bit depth : 16 bits Compression mode : Lossy Stream size : 221 MiB (7%) Language : Spanish Audio #2 ID : 3 Format : AC-3 Format/Info : Audio Coding 3 Mode extension : CM (complete main) Codec ID : A_AC3 Duration : 1h 20mn Bit rate mode : Constant Bit rate : 448 Kbps Channel(s) : 6 channels Channel positions : Front: L C R, Side: L R, LFE Sampling rate : 48.0 KHz Bit depth : 16 bits Compression mode : Lossy Stream size : 258 MiB (8%) Language : English Audio #3 ID : 4 Format : AC-3 Format/Info : Audio Coding 3 Mode extension : CM (complete main) Codec ID : A_AC3 Duration : 1h 20mn Bit rate mode : Constant Bit rate : 384 Kbps Channel(s) : 6 channels Channel positions : Front: L C R, Side: L R, LFE Sampling rate : 48.0 KHz Bit depth : 16 bits Compression mode : Lossy Stream size : 221 MiB (7%) Language : Italian Text #1 ID : 5 Format : UTF-8 Codec ID : S_TEXT/UTF8 Codec ID/Info : UTF-8 Plain Text Language : Spanish Text #2 ID : 6 Format : UTF-8 Codec ID : S_TEXT/UTF8 Codec ID/Info : UTF-8 Plain Text Language : English Text #3 ID : 7 Format : UTF-8 Codec ID : S_TEXT/UTF8 Codec ID/Info : UTF-8 Plain Text Language : Italian
    [​IMG]
    [video=youtube;3_kKIZSmAuE]http://www.youtube.com/watch?v=3_kKIZSmAuE[/video]
    Linkdown
    1 Link 3.2 Gb
    SUbvn
    Xin cám ơn bác Dark_Devil_90 đã chia sẻ Link​
     
  2. VThanhgtvt

    VThanhgtvt Well-Known Member

    Tham gia ngày:
    30/12/09
    Bài viết:
    22,661
    Đã được cảm ơn:
    781
    Giới tính:
    Nam
    Ðề: [Hành Động | 1 link] Torque 2004 720p Blu-ray x264 AC3 Unknown - Bá chủ đường đua

    Sao Cover "cong" thế nhỉ???
     
  3. bolajunior

    bolajunior Member

    Tham gia ngày:
    4/6/09
    Bài viết:
    73
    Đã được cảm ơn:
    2
    Ðề: [Hành Động | 1 link] Torque 2004 720p Blu-ray x264 AC3 Unknown - Bá chủ đường đua

    ủa chỉ có 1 file mkv vậy cái pass để làm gì vậy quangnuyen
     
  4. 2nd

    2nd New Member

    Tham gia ngày:
    23/4/12
    Bài viết:
    50
    Đã được cảm ơn:
    1
    Ðề: [Hành Động | 1 link] Torque 2004 720p Blu-ray x264 AC3 Unknown - Bá chủ đường đua

    Chắc là có pass mới được download ấy mà
     
  5. dntk44tdh3

    dntk44tdh3 Active Member

    Tham gia ngày:
    6/4/12
    Bài viết:
    1,157
    Đã được cảm ơn:
    21
    Ðề: [Hành Động | 1 link] Torque 2004 720p Blu-ray x264 AC3 Unknown - Bá chủ đường đua

    không cần pass gì đâu,down được bình thường mà
     
  6. dmd19

    dmd19 New Member

    Tham gia ngày:
    6/12/09
    Bài viết:
    1,076
    Đã được cảm ơn:
    15
    Cám ơn bạn rất nhiều.
     

Chia sẻ trang này