[ Hành Động ] 13 Hours The Secret Soldiers of Benghazi 2016 1080p WEB-DL DD5.1 H264-RARBG | 13 Giờ

Thảo luận trong 'WEB-DL, HDTV' bắt đầu bởi gianlan123, 26/5/16.

  1. gianlan123

    gianlan123 Active Member

    Tham gia ngày:
    18/10/12
    Bài viết:
    133
    Đã được cảm ơn:
    399
    13 Hours The Secret Soldiers of Benghazi 2016 1080p WEB-DL DD5.1 H264-RARBG
    13 Giờ : Lính Ngầm Benghazi
    ( John Krasinski, Pablo Schreiber, James Badge Dale )



    [​IMG]



    Mã:
    [mediainfo]
    Video
    ID                                       : 1
    Format                                   : AVC
    Format/Info                              : Advanced Video Codec
    Format profile                           : High@L4
    Format settings, CABAC                   : Yes
    Format settings, ReFrames                : 5 frames
    Codec ID                                 : V_MPEG4/ISO/AVC
    Duration                                 : 2h 24mn
    
    
    Bit rate                                 : 4 416 Kbps
    Width                                    : 1 908 pixels
    Height                                   : 788 pixels
    Display aspect ratio                     : 2.40:1
    Frame rate mode                          : Constant
    Frame rate                               : 23.976 fps
    Color space                              : YUV
    Chroma subsampling                       : 4:2:0
    Bit depth                                : 8 bits
    Scan type                                : Progressive
    Bits/(Pixel*Frame)                       : 0.123
    Stream size                              : 4.47 GiB (90%)
    Title                                    : 13.Hours.The.Secret.Soldiers.of.Benghazi.2016.1080  p.WEB-DL.DD5.1.H264-RARBG
    Language                                 : English
    Default                                  : Yes
    Forced                                   : No
    Color range                              : Limited
    Color primaries                          : BT.709
    Transfer characteristics                 : BT.709
    Matrix coefficients                      : BT.709
    Audio
    ID                                       : 2
    Format                                   : AC-3
    Format/Info                              : Audio Coding 3
    Mode extension                           : CM (complete main)
    Format settings, Endianness              : Big
    Codec ID                                 : A_AC3
    Duration                                 : 2h 24mn
    Bit rate mode                            : Constant
    Bit rate                                 : 384 Kbps
    Channel(s)                               : 6 channels
    Channel positions                        : Front: L C R, Side: L R, LFE
    Sampling rate                            : 48.0 KHz
    Frame rate                               : 31.250 fps (1536 spf)
    Compression mode                         : Lossy
    Stream size                              : 398 MiB (8%)
    Title                                    : 13.Hours.The.Secret.Soldiers.of.Benghazi.2016.1080  p.WEB-DL.DD5.1.H264-RARBG
    Language                                 : English
    Default                                  : Yes
    Forced                                   : No
    Text
    ID                                       : 3
    Format                                   : UTF-8
    Codec ID                                 : S_TEXT/UTF8
    Codec ID/Info                            : UTF-8 Plain Text
    Language                                 : English
    Default                                  : Yes
    Forced                                   : No
    Menu
    00:00:00.000                             : en:1
    00:04:47.000                             : en:2
    00:09:01.000                             : en:3
    00:15:31.000                             : en:4
    00:21:12.000                             : en:5
    00:26:48.000                             : en:6
    00:31:22.000                             : en:7
    00:34:20.000                             : en:8
    00:39:36.000                             : en:9
    00:47:13.000                             : en:10
    00:53:59.000                             : en:11
    01:02:27.000                             : en:12
    01:10:03.000                             : en:13
    01:23:02.000                             : en:14
    01:27:11.000                             : en:15
    01:34:50.000                             : en:16
    01:42:36.000                             : en:17
    01:48:08.000                             : en:18
    01:53:47.000                             : en:19
    02:00:23.000                             : en:20
    02:07:19.000                             : en:21
    02:18:25.000                             : en:22
    [/mediainfo]
    






    [​IMG]

    [​IMG]

    [​IMG]

    [​IMG]

    [​IMG]

    [​IMG]



    [video=youtube;5MBjAN7jqsQ]https://www.youtube.com/watch?v=5MBjAN7jqsQ[/video]



    [​IMG]

    Nhấn nút Cảm ơn (dưới chân bài) để thấy link!



    Subscene

     
  2. anhtu911

    anhtu911 New Member

    Tham gia ngày:
    17/2/20
    Bài viết:
    1
    Đã được cảm ơn:
    0
    Giới tính:
    Nam
    Link die rồi bạn ơi
     

Chia sẻ trang này