[Hành Động | Ấn Độ | 1link ] Game 2011 Upscaled 720px264 -DDR - Trò Chơi Tử Thần

Thảo luận trong 'Fshare.vn' bắt đầu bởi xemaydinh, 6/3/13.

  1. xemaydinh

    xemaydinh Tem

    Tham gia ngày:
    3/7/10
    Bài viết:
    29,300
    Đã được cảm ơn:
    98,973
    Điểm thành tích:
    113
    Tiền:
    19,092 CR
    Game 2011 Upscaled 720px264 -DDR - Trò Chơi Tử Thần


    [​IMG]

    [​IMG]





    Mã:
          Format : Matroska
          File size : 2.88 GiB
          Duration : 2h 14mn
          Overall bit rate : 3 061 Kbps
          Encoded date : UTC 2011-05-15 11:00:42
    
    
          Writing application : mkvmerge v4.7.0 ('Just Like You Imagined') built on Apr 21 2011 01:13:14
          Writing library : libebml v1.2.0 + libmatroska v1.1.0
       Video #1
          ID : 1
          Format : AVC
          Format/Info : Advanced Video Codec
          Format profile : High@L4.1
          Format settings, CABAC : Yes
          Format settings, ReFrames : 9 frames
          Codec ID : V_MPEG4/ISO/AVC
          Duration : 2h 14mn
          Bit rate : 2 675 Kbps
          Width : 1 280 pixels
          Height : 544 pixels
          Display aspect ratio : 2.35:1
          Frame rate : 23.976 fps
          Color space : YUV
          Chroma subsampling : 4:2:0
          Bit depth : 8 bits
          Scan type : Progressive
          Bits/(Pixel*Frame) : 0.160
          Stream size : 2.47 GiB (85%)
          Title : KaMaL DDR
          Writing library : x264 core 98 r1649 20cbe10
          Encoding settings : cabac=1 / ref=9 / deblock=1:-3:1 / analyse=0x3:0x113 / me=umh / subme=6 / psy=1 / psy_rd=1.00:0.00 / mixed_ref=1 / me_range=10 / chroma_me=1 / trellis=1 / 8x8dct=1 / cqm=2 / deadzone=21,11 / fast_pskip=1 / chroma_qp_offset=-2 / threads=12 / sliced_threads=0 / nr=0 / decimate=1 / interlaced=0 / constrained_intra=0 / bframes=3 / b_pyramid=0 / b_adapt=2 / b_bias=0 / direct=3 / weightb=1 / weightp=2 / keyint=250 / keyint_min=25 / scenecut=40 / intra_refresh=0 / rc_lookahead=40 / rc=2pass / mbtree=1 / bitrate=2675 / ratetol=1.0 / qcomp=0.60 / qpmin=10 / qpmax=51 / qpstep=4 / cplxblur=20.0 / qblur=0.5 / ip_ratio=1.40 / aq=1:1.00
          Language : Hindi
       Audio #2
          ID : 2
          Format : AC-3
          Format/Info : Audio Coding 3
          Mode extension : CM (complete main)
          Codec ID : A_AC3
          Duration : 2h 14mn
          Bit rate mode : Constant
          Bit rate : 384 Kbps
          Channel(s) : 6 channels
          Channel positions : Front: L C R, Side: L R, LFE
          Sampling rate : 48.0 KHz
          Bit depth : 16 bits
          Compression mode : Lossy
          Stream size : 371 MiB (13%)
          Title : KaMaL DDR
          Language : Hindi
       Text #3
          ID : 3
          Format : UTF-8
          Codec ID : S_TEXT/UTF8
          Codec ID/Info : UTF-8 Plain Text
          Title : KaMaL DDR
          Language : English


    [​IMG]


    [​IMG] [​IMG] [​IMG] [​IMG] [​IMG] [​IMG]

    [​IMG]


    [video=youtube;NGHrcbQKqFc]http://www.youtube.com/watch?v=NGHrcbQKqFc&feature=player_embedded[/video]






    1 link Fshare ~2.88GB


    Nhấn nút Cảm ơn (dưới chân bài) để thấy link!






    Sub Việt chuẩn




    [​IMG] [​IMG] [​IMG]







    D/S phim hay duoc chon loc
     
    thanhtung90, fsvnhd and kiali6252 like this.
  2. gprsmms

    gprsmms Well-Known Member

    Tham gia ngày:
    27/4/10
    Bài viết:
    2,478
    Đã được cảm ơn:
    281
    Điểm thành tích:
    83
    Giới tính:
    Nam
    Web:
    Tiền:
    1,765 CR
    sao giống thám tử Conan quá vậy?
     
  3. hongxanh1080

    hongxanh1080 New Member

    Tham gia ngày:
    26/1/10
    Bài viết:
    170
    Đã được cảm ơn:
    1
    Điểm thành tích:
    0
    Tiền:
    682 CR
    Ðề: [Hành Động | Ấn Độ | 1link ] Game 2011 Upscaled 720px264 -DDR - Trò Chơi Tử Thần

    Link die rồi bác chủ thớt ơi :-(
     

Chia sẻ trang này