[Hành Động | Ấn Độ | 1link ] Hate Story 2012 HDRip 720p x264 DD20-DDR

Thảo luận trong 'Fshare.vn' bắt đầu bởi xemaydinh, 3/8/12.

  1. xemaydinh

    xemaydinh Tem

    Tham gia ngày:
    3/7/10
    Bài viết:
    29,300
    Đã được cảm ơn:
    98,728
    Điểm thành tích:
    113
    Tiền:
    19,092 CR
    Hate Story 2012 HDRip 720p x264 DD20-DDR - Hận Thù


    [​IMG]

    [​IMG]





    Mã:
    General
    Unique ID                                : 181113535432547359627753474583981515718 (0x884132B8254301CDA08D2C6ECCCCE3C6)
    Complete name                            : Hate.Story.2012.HDRip.720p.x264.DD20-DDR.mkv
    Format                                   : Matroska
    Format version                           : Version 2
    
    
    File size                                : 3.50 GiB
    Duration                                 : 2h 13mn
    Overall bit rate                         : 3 743 Kbps
    Encoded date                             : UTC 2012-08-02 09:05:18
    Writing application                      : mkvmerge v4.2.0 ('No Talking') 编译于 Jul 28 2010 18:38]23
    Writing library                          : libebml v1.0.0 + libmatroska v1.0.0
    Video
    ID                                       : 1
    Format                                   : AVC
    Format/Info                              : Advanced Video Codec
    Format profile                           : High@L4.1
    Format settings, CABAC                   : Yes
    Format settings, ReFrames                : 9 frames
    Muxing mode                              : Header stripping
    Codec ID                                 : V_MPEG4/ISO/AVC
    Duration                                 : 2h 13mn
    Bit rate                                 : 3 518 Kbps
    Width                                    : 1 280 pixels
    Height                                   : 544 pixels
    Display aspect ratio                     : 2.35:1
    Frame rate                               : 25.000 fps
    Color space                              : YUV
    Chroma subsampling                       : 4:2]0
    Bit depth                                : 8 bits
    Scan type                                : Progressive
    Bits/(Pixel*Frame)                       : 0.202
    Stream size                              : 3.22 GiB (92%)
    Title                                    : KaMaL DDR
    Writing library                          : x264 core 98 r1649 20cbe10
    Encoding settings                        : cabac=1 / ref=9 / deblock=1:-3:1 / analyse=0x3:0x113 / me=umh / subme=8 / psy=1 / psy_rd=1.00:0.00 / mixed_ref=1 / me_range=16 / chroma_me=1 / trellis=1 / 8x8dct=1 / cqm=2 / deadzone=21,11 / fast_pskip=1 / chroma_qp_offset=-2 / threads=12 / sliced_threads=0 / nr=0 / decimate=1 / interlaced=0 / constrained_intra=0 / bframes=3 / b_pyramid=0 / b_adapt=2 / b_bias=0 / direct=2 / weightb=1 / weightp=2 / keyint=250 / keyint_min=25 / scenecut=40 / intra_refresh=0 / rc_lookahead=40 / rc=2pass / mbtree=1 / bitrate=3518 / ratetol=1.0 / qcomp=0.60 / qpmin=10 / qpmax=51 / qpstep=4 / cplxblur=20.0 / qblur=0.5 / ip_ratio=1.40 / aq=1:1.00
    Language                                 : Hindi
    Default                                  : Yes
    Forced                                   : No
    Audio
    ID                                       : 2
    Format                                   : AC-3
    Format/Info                              : Audio Coding 3
    Mode extension                           : CM (complete main)
    Format settings, Endianness              : Big
    Muxing mode                              : Header stripping
    Codec ID                                 : A_AC3
    Duration                                 : 2h 13mn
    Bit rate mode                            : Constant
    Bit rate                                 : 224 Kbps
    Channel(s)                               : 2 channels
    Channel positions                        : Front: L R
    Sampling rate                            : 48.0 KHz
    Bit depth                                : 16 bits
    Compression mode                         : Lossy
    Stream size                              : 214 MiB (6%)
    Default                                  : Yes
    Forced                                   : No


    [​IMG]


    [​IMG] [​IMG] [​IMG] [​IMG] [​IMG] [​IMG]

    [​IMG]


    [video=youtube;4wyAIdYRTPg]http://www.youtube.com/watch?feature=player_embedded&v=4wyAIdYRTPg[/video]




    1 link Fshare ~3.5GB


    Nhấn nút Cảm ơn (dưới chân bài) để thấy link!





    Sub Việt(đã có)




    [​IMG] [​IMG] [​IMG]







    D/S phim hay duoc chon loc
     
    Chỉnh sửa cuối: 24/3/13
  2. nhaem62

    nhaem62 Member

    Tham gia ngày:
    15/10/11
    Bài viết:
    641
    Đã được cảm ơn:
    10
    Điểm thành tích:
    18
    Tiền:
    75 CR
    Ðề: [Hành Động | Ấn Độ | 1link ] Hate Story 2012 HDRip 720p x264 DD20-DDR

    Lâu lâu mới được về đầu tính mỡ hàng cho bạn, ai dè thiếu sub vịt uổng thiệt. Thanks
     
  3. VThanhgtvt

    VThanhgtvt Well-Known Member

    Tham gia ngày:
    30/12/09
    Bài viết:
    23,213
    Đã được cảm ơn:
    719
    Điểm thành tích:
    113
    Giới tính:
    Nam
    Tiền:
    32,477 CR
    Ðề: [Hành Động | Ấn Độ | 1link ] Hate Story 2012 HDRip 720p x264 DD20-DDR

    Nhìn 2 SS bên tay phải kìa......
     
  4. kenshinkwok

    kenshinkwok New Member

    Tham gia ngày:
    24/7/09
    Bài viết:
    81
    Đã được cảm ơn:
    2
    Điểm thành tích:
    0
    Tiền:
    87 CR
    Ðề: [Hành Động | Ấn Độ | 1link ] Hate Story 2012 HDRip 720p x264 DD20-DDR

    cảm ơn trước nhé, chờ sub luôn vậy
     
  5. ivy68

    ivy68 Well-Known Member

    Tham gia ngày:
    29/3/09
    Bài viết:
    9,920
    Đã được cảm ơn:
    2,864
    Điểm thành tích:
    113
    Nơi ở:
    Hà Nội
    Tiền:
    6,713 CR
  6. xemaydinh

    xemaydinh Tem

    Tham gia ngày:
    3/7/10
    Bài viết:
    29,300
    Đã được cảm ơn:
    98,728
    Điểm thành tích:
    113
    Tiền:
    19,092 CR
  7. lifoto

    lifoto New Member

    Tham gia ngày:
    13/4/12
    Bài viết:
    113
    Đã được cảm ơn:
    0
    Điểm thành tích:
    0
    Tiền:
    99 CR
    Ðề: [Hành Động | Ấn Độ | 1link ] Hate Story 2012 HDRip 720p x264 DD20-DDR

    cám ơn bác chủ và bác ivy nhé hehe
     
  8. norawanbi

    norawanbi Active Member

    Tham gia ngày:
    2/2/11
    Bài viết:
    475
    Đã được cảm ơn:
    55
    Điểm thành tích:
    28
    Tiền:
    1,727 CR
    Ðề: [Hành Động | Ấn Độ | 1link ] Hate Story 2012 HDRip 720p x264 DD20-DDR

    Link Không Tồn Tại Trong Hệ Thống
     

Chia sẻ trang này