[Hành Động] Dark Phoenix 2019 UHD BluRay Remux 2160p HEVC HDR10+ Atmos 7.1 - Decibel [Internal AHD]

Thảo luận trong 'Bluray Remux' bắt đầu bởi kyoshiro244, 16/11/19.

  1. kyoshiro244

    kyoshiro244 Active Member

    Tham gia ngày:
    2/3/11
    Bài viết:
    26
    Đã được cảm ơn:
    251
    [​IMG]

    Remux Information

    Mã:
            Name: Dark.Phoenix.2019.UHD.REPACK.BluRay.Remux.2160p.HEVC.HDR10+.Atmos.7.1-decibeL [Internal AwesomeHD]
            Source: Dark.Phoenix.2019.UHD.BluRay.2160p.HEVC.TrueHD.Atmos.7.1-BeyondHD
            Edition:20th Century Fox | United States
            Video: MPEG-H HEVC Video / 49785 kbps / 2160p / 23.976 fps / 16:9 / Main 10 @ Level 5.1 @ High / 10 bits / HDR10 / BT.2020
            Audio 1: Dolby TrueHD/Atmos Audio / 7.1 / 48 kHz / 4775 kbps / 24-bit
            Audio 2: Compatibility Track / Dolby Digital Audio / 5.1 / 48 kHz / 448 kbps
            Audio 3: Commentary with Writer/Director Simon Kinberg and Producer Hutch Parker / Dolby Digital Audio / 2.0 / 48 kHz / 224 kbps
            Subtitles:English (Forced), English. English (SDH), Chinese (Cantonese), Chinese (Mandarin Simplified), Chinese(Mandarin Traditional), Czech, Danish, Dutch, Estonian, Finnish, French, German, Hindi, Hungarian, Italian, Japanese, Korean, Latvian, Lithuanian, Norwegian, Polish, Portuguese (Iberian), Russian, Spanish (Castilian), Spanish (Latin American), Swedish, Tamil, Telugu, Thai, Ukrainian
            Subtitles (Commentary): English, Danish, Finnish, French, German, Italian, Japanese, Korean, Norwegian, Russian, Spanish (Castilian), Spanish (Latin American), Swedish
            Chapters: Included (Numbered)
    Mediainfo
    Mã:
    General
    Unique ID : 6706267499354578716573576188947799572 (0x50B948400CC94E076275E4FACCB1E14)
    Complete name : C:\Users\TufInside\Desktop\releases\Dark.Phoenix.2019.UHD.REPACK.BluRay.Remux.2160p.HEVC.HDR10+.Atmos.7.1-decibeL.mkv
    Format : Matroska
    Format version : Version 4
    File size : 44.5 GiB
    Duration : 1 h 53 min
    Overall bit rate mode : Variable
    Overall bit rate : 55.9 Mb/s
    Movie name : Dark Phoenix (2019)
    Encoded date : UTC 2019-11-15 07:34:55
    Writing application : mkvmerge v35.0.0 ('All The Love In The World') 64-bit
    Writing library : libebml v1.3.9 + libmatroska v1.5.2
    Video
    ID : 1
    Format : HEVC
    Format/Info : High Efficiency Video Coding
    Format profile : Main 10@L5.1@High
    HDR format : SMPTE ST 2094 App 4, Version 1, HDR10+ Profile A compatible
    Codec ID : V_MPEGH/ISO/HEVC
    Duration : 1 h 53 min
    Bit rate : 49.7 Mb/s
    Width : 3 840 pixels
    Height : 2 160 pixels
    Display aspect ratio : 16:9
    Frame rate mode : Constant
    Frame rate : 23.976 (24000/1001) FPS
    Color space : YUV
    Chroma subsampling : 4:2:0 (Type 2)
    Bit depth : 10 bits
    Bits/(Pixel*Frame) : 0.250
    Stream size : 39.6 GiB (89%)
    Title : MPEG-H HEVC Video / 49785 kbps / 2160p / 23.976 fps / 16:9 / Main 10 @ Level 5.1 @ High / 10 bits / HDR10 / BT.2020
    Writing library : ATEME Titan File 3.9.0 (4.9.0.0)
    Language : English
    Default : Yes
    Forced : No
    Color range : Limited
    Color primaries : BT.2020
    Transfer characteristics : PQ
    Matrix coefficients : BT.2020 non-constant
    Mastering display color primaries : Display P3
    Mastering display luminance : min: 0.0050 cd/m2, max: 1000 cd/m2
    Audio #1
    ID : 2
    Format : MLP FBA 16-ch
    Format/Info : Meridian Lossless Packing FBA with 16-channel presentation
    Commercial name : Dolby TrueHD with Dolby Atmos
    Codec ID : A_TRUEHD
    Duration : 1 h 53 min
    Bit rate mode : Variable
    Bit rate : 4 775 kb/s
    Maximum bit rate : 7 464 kb/s
    Channel(s) : 8 channels
    Channel layout : L R C LFE Ls Rs Lb Rb
    Sampling rate : 48.0 kHz
    Frame rate : 1 200.000 FPS (40 SPF)
    Compression mode : Lossless
    Stream size : 3.80 GiB (9%)
    Title : Dolby TrueHD/Atmos Audio / 7.1 / 48 kHz / 4775 kbps / 24-bit
    Language : English
    Default : Yes
    Forced : No
    Number of dynamic objects : 13
    Bed channel count : 1 channel
    Bed channel configuration : LFE
    Audio #2
    ID : 3
    Format : AC-3
    Format/Info : Audio Coding 3
    Commercial name : Dolby Digital
    Codec ID : A_AC3
    Duration : 1 h 53 min
    Bit rate mode : Constant
    Bit rate : 640 kb/s
    Channel(s) : 6 channels
    Channel layout : L R C LFE Ls Rs
    Sampling rate : 48.0 kHz
    Frame rate : 31.250 FPS (1536 SPF)
    Compression mode : Lossy
    Stream size : 522 MiB (1%)
    Title : Compatibility Track /
    Language : English
    Service kind : Complete Main
    Default : No
    Forced : No
    Audio #3
    ID : 4
    Format : AC-3
    Format/Info : Audio Coding 3
    Commercial name : Dolby Digital
    Codec ID : A_AC3
    Duration : 1 h 53 min
    Bit rate mode : Constant
    Bit rate : 224 kb/s
    Channel(s) : 2 channels
    Channel layout : L R
    Sampling rate : 48.0 kHz
    Frame rate : 31.250 FPS (1536 SPF)
    Compression mode : Lossy
    Stream size : 183 MiB (0%)
    Title : Commentary with Writer/Director Simon Kinberg and Producer Hutch Parker / Dolby Digital Audio / 2.0 / 48 kHz / 224 kbps
    Language : English
    Service kind : Complete Main
    Default : No
    Forced : No
    Text #1
    ID : 5
    Format : PGS
    Muxing mode : zlib
    Codec ID : S_HDMV/PGS
    Codec ID/Info : Picture based subtitle format used on BDs/HD-DVDs
    Duration : 1 h 5 min
    Bit rate : 135 b/s
    Count of elements : 11
    Stream size : 64.8 KiB (0%)
    Title : For Foreign Parts Only
    Language : English
    Default : Yes
    Forced : No
    Text #2
    ID : 6
    Format : UTF-8
    Codec ID : S_TEXT/UTF8
    Codec ID/Info : UTF-8 Plain Text
    Duration : 1 h 53 min
    Bit rate : 38 b/s
    Count of elements : 1184
    Stream size : 31.6 KiB (0%)
    Language : English
    Default : No
    Forced : No
    Text #3
    ID : 7
    Format : PGS
    Muxing mode : zlib
    Codec ID : S_HDMV/PGS
    Codec ID/Info : Picture based subtitle format used on BDs/HD-DVDs
    Duration : 1 h 53 min
    Bit rate : 28.1 kb/s
    Count of elements : 2830
    Stream size : 22.9 MiB (0%)
    Title : SDH
    Language : English
    Default : No
    Forced : No
    Text #4
    ID : 8
    Format : PGS
    Muxing mode : zlib
    Codec ID : S_HDMV/PGS
    Codec ID/Info : Picture based subtitle format used on BDs/HD-DVDs
    Duration : 1 h 52 min
    Bit rate : 15.3 kb/s
    Count of elements : 2212
    Stream size : 12.4 MiB (0%)
    Title : Cantonese
    Language : Chinese
    Default : No
    Forced : No
    Text #5
    ID : 9
    Format : PGS
    Muxing mode : zlib
    Codec ID : S_HDMV/PGS
    Codec ID/Info : Picture based subtitle format used on BDs/HD-DVDs
    Duration : 1 h 47 min
    Bit rate : 22.7 kb/s
    Count of elements : 2460
    Stream size : 17.4 MiB (0%)
    Title : Simplified
    Language : Chinese
    Default : No
    Forced : No
    Text #6
    ID : 10
    Format : PGS
    Muxing mode : zlib
    Codec ID : S_HDMV/PGS
    Codec ID/Info : Picture based subtitle format used on BDs/HD-DVDs
    Duration : 1 h 52 min
    Bit rate : 17.9 kb/s
    Count of elements : 2202
    Stream size : 14.4 MiB (0%)
    Title : Traditional
    Language : Chinese
    Default : No
    Forced : No
    Text #7
    ID : 11
    Format : PGS
    Muxing mode : zlib
    Codec ID : S_HDMV/PGS
    Codec ID/Info : Picture based subtitle format used on BDs/HD-DVDs
    Duration : 1 h 52 min
    Bit rate : 19.2 kb/s
    Count of elements : 2202
    Stream size : 15.5 MiB (0%)
    Language : Czech
    Default : No
    Forced : No
    Text #8
    ID : 12
    Format : PGS
    Muxing mode : zlib
    Codec ID : S_HDMV/PGS
    Codec ID/Info : Picture based subtitle format used on BDs/HD-DVDs
    Duration : 1 h 52 min
    Bit rate : 19.4 kb/s
    Count of elements : 1592
    Stream size : 15.6 MiB (0%)
    Language : Danish
    Default : No
    Forced : No
    Text #9
    ID : 13
    Format : PGS
    Muxing mode : zlib
    Codec ID : S_HDMV/PGS
    Codec ID/Info : Picture based subtitle format used on BDs/HD-DVDs
    Duration : 1 h 52 min
    Bit rate : 19.4 kb/s
    Count of elements : 1514
    Stream size : 15.7 MiB (0%)
    Language : Dutch
    Default : No
    Forced : No
    Text #10
    ID : 14
    Format : PGS
    Muxing mode : zlib
    Codec ID : S_HDMV/PGS
    Codec ID/Info : Picture based subtitle format used on BDs/HD-DVDs
    Duration : 1 h 52 min
    Bit rate : 21.9 kb/s
    Count of elements : 2198
    Stream size : 17.7 MiB (0%)
    Language : Estonian
    Default : No
    Forced : No
    Text #11
    ID : 15
    Format : PGS
    Muxing mode : zlib
    Codec ID : S_HDMV/PGS
    Codec ID/Info : Picture based subtitle format used on BDs/HD-DVDs
    Duration : 1 h 52 min
    Bit rate : 20.7 kb/s
    Count of elements : 2198
    Stream size : 16.7 MiB (0%)
    Language : Finnish
    Default : No
    Forced : No
    Text #12
    ID : 16
    Format : PGS
    Muxing mode : zlib
    Codec ID : S_HDMV/PGS
    Codec ID/Info : Picture based subtitle format used on BDs/HD-DVDs
    Duration : 1 h 52 min
    Bit rate : 18.7 kb/s
    Count of elements : 2016
    Stream size : 15.1 MiB (0%)
    Language : French
    Default : No
    Forced : No
    Text #13
    ID : 17
    Format : PGS
    Muxing mode : zlib
    Codec ID : S_HDMV/PGS
    Codec ID/Info : Picture based subtitle format used on BDs/HD-DVDs
    Duration : 1 h 52 min
    Bit rate : 21.6 kb/s
    Count of elements : 2054
    Stream size : 17.4 MiB (0%)
    Language : German
    Default : No
    Forced : No
    Text #14
    ID : 18
    Format : PGS
    Muxing mode : zlib
    Codec ID : S_HDMV/PGS
    Codec ID/Info : Picture based subtitle format used on BDs/HD-DVDs
    Duration : 1 h 52 min
    Bit rate : 17.8 kb/s
    Count of elements : 2200
    Stream size : 14.4 MiB (0%)
    Language : Hindi
    Default : No
    Forced : No
    Text #15
    ID : 19
    Format : PGS
    Muxing mode : zlib
    Codec ID : S_HDMV/PGS
    Codec ID/Info : Picture based subtitle format used on BDs/HD-DVDs
    Duration : 1 h 52 min
    Bit rate : 21.8 kb/s
    Count of elements : 2042
    Stream size : 17.6 MiB (0%)
    Language : Hungarian
    Default : No
    Forced : No
    Text #16
    ID : 20
    Format : PGS
    Muxing mode : zlib
    Codec ID : S_HDMV/PGS
    Codec ID/Info : Picture based subtitle format used on BDs/HD-DVDs
    Duration : 1 h 52 min
    Bit rate : 20.9 kb/s
    Count of elements : 2198
    Stream size : 16.9 MiB (0%)
    Language : Italian
    Default : No
    Forced : No
    Text #17
    ID : 21
    Format : PGS
    Muxing mode : zlib
    Codec ID : S_HDMV/PGS
    Codec ID/Info : Picture based subtitle format used on BDs/HD-DVDs
    Duration : 1 h 52 min
    Bit rate : 16.0 kb/s
    Count of elements : 2183
    Stream size : 12.9 MiB (0%)
    Language : Japanese
    Default : No
    Forced : No
    Text #18
    ID : 22
    Format : PGS
    Muxing mode : zlib
    Codec ID : S_HDMV/PGS
    Codec ID/Info : Picture based subtitle format used on BDs/HD-DVDs
    Duration : 1 h 52 min
    Bit rate : 16.5 kb/s
    Count of elements : 2210
    Stream size : 13.3 MiB (0%)
    Language : Korean
    Default : No
    Forced : No
    Text #19
    ID : 23
    Format : PGS
    Muxing mode : zlib
    Codec ID : S_HDMV/PGS
    Codec ID/Info : Picture based subtitle format used on BDs/HD-DVDs
    Duration : 1 h 52 min
    Bit rate : 21.3 kb/s
    Count of elements : 2204
    Stream size : 17.2 MiB (0%)
    Language : Latvian
    Default : No
    Forced : No
    Text #20
    ID : 24
    Format : PGS
    Muxing mode : zlib
    Codec ID : S_HDMV/PGS
    Codec ID/Info : Picture based subtitle format used on BDs/HD-DVDs
    Duration : 1 h 52 min
    Bit rate : 20.1 kb/s
    Count of elements : 2200
    Stream size : 16.2 MiB (0%)
    Language : Lithuanian
    Default : No
    Forced : No
    Text #21
    ID : 25
    Format : PGS
    Muxing mode : zlib
    Codec ID : S_HDMV/PGS
    Codec ID/Info : Picture based subtitle format used on BDs/HD-DVDs
    Duration : 1 h 52 min
    Bit rate : 20.8 kb/s
    Count of elements : 2202
    Stream size : 16.8 MiB (0%)
    Language : Norwegian
    Default : No
    Forced : No
    Text #22
    ID : 26
    Format : PGS
    Muxing mode : zlib
    Codec ID : S_HDMV/PGS
    Codec ID/Info : Picture based subtitle format used on BDs/HD-DVDs
    Duration : 1 h 52 min
    Bit rate : 19.4 kb/s
    Count of elements : 2146
    Stream size : 15.7 MiB (0%)
    Language : Polish
    Default : No
    Forced : No
    Text #23
    ID : 27
    Format : PGS
    Muxing mode : zlib
    Codec ID : S_HDMV/PGS
    Codec ID/Info : Picture based subtitle format used on BDs/HD-DVDs
    Duration : 1 h 52 min
    Bit rate : 23.1 kb/s
    Count of elements : 2210
    Stream size : 18.6 MiB (0%)
    Language : Portuguese
    Default : No
    Forced : No
    Text #24
    ID : 28
    Format : PGS
    Muxing mode : zlib
    Codec ID : S_HDMV/PGS
    Codec ID/Info : Picture based subtitle format used on BDs/HD-DVDs
    Duration : 1 h 52 min
    Bit rate : 21.7 kb/s
    Count of elements : 2200
    Stream size : 17.5 MiB (0%)
    Language : Russian
    Default : No
    Forced : No
    Text #25
    ID : 29
    Format : PGS
    Muxing mode : zlib
    Codec ID : S_HDMV/PGS
    Codec ID/Info : Picture based subtitle format used on BDs/HD-DVDs
    Duration : 1 h 52 min
    Bit rate : 21.6 kb/s
    Count of elements : 2158
    Stream size : 17.4 MiB (0%)
    Title : Castilian
    Language : Spanish
    Default : No
    Forced : No
    Text #26
    ID : 30
    Format : PGS
    Muxing mode : zlib
    Codec ID : S_HDMV/PGS
    Codec ID/Info : Picture based subtitle format used on BDs/HD-DVDs
    Duration : 1 h 52 min
    Bit rate : 21.3 kb/s
    Count of elements : 2116
    Stream size : 17.2 MiB (0%)
    Title : Latin American
    Language : Spanish
    Default : No
    Forced : No
    Text #27
    ID : 31
    Format : PGS
    Muxing mode : zlib
    Codec ID : S_HDMV/PGS
    Codec ID/Info : Picture based subtitle format used on BDs/HD-DVDs
    Duration : 1 h 52 min
    Bit rate : 21.4 kb/s
    Count of elements : 2202
    Stream size : 17.3 MiB (0%)
    Language : Swedish
    Default : No
    Forced : No
    Text #28
    ID : 32
    Format : PGS
    Muxing mode : zlib
    Codec ID : S_HDMV/PGS
    Codec ID/Info : Picture based subtitle format used on BDs/HD-DVDs
    Duration : 1 h 52 min
    Bit rate : 26.1 kb/s
    Count of elements : 2198
    Stream size : 21.0 MiB (0%)
    Language : Tamil
    Default : No
    Forced : No
    Text #29
    ID : 33
    Format : PGS
    Muxing mode : zlib
    Codec ID : S_HDMV/PGS
    Codec ID/Info : Picture based subtitle format used on BDs/HD-DVDs
    Duration : 1 h 52 min
    Bit rate : 21.3 kb/s
    Count of elements : 2198
    Stream size : 17.2 MiB (0%)
    Language : Telugu
    Default : No
    Forced : No
    Text #30
    ID : 34
    Format : PGS
    Muxing mode : zlib
    Codec ID : S_HDMV/PGS
    Codec ID/Info : Picture based subtitle format used on BDs/HD-DVDs
    Duration : 1 h 52 min
    Bit rate : 18.9 kb/s
    Count of elements : 2204
    Stream size : 15.3 MiB (0%)
    Language : Thai
    Default : No
    Forced : No
    Text #31
    ID : 35
    Format : PGS
    Muxing mode : zlib
    Codec ID : S_HDMV/PGS
    Codec ID/Info : Picture based subtitle format used on BDs/HD-DVDs
    Duration : 1 h 52 min
    Bit rate : 21.4 kb/s
    Count of elements : 2206
    Stream size : 17.3 MiB (0%)
    Language : Ukrainian
    Default : No
    Forced : No
    Text #32
    ID : 36
    Format : PGS
    Muxing mode : zlib
    Codec ID : S_HDMV/PGS
    Codec ID/Info : Picture based subtitle format used on BDs/HD-DVDs
    Duration : 1 h 53 min
    Bit rate : 75.7 kb/s
    Count of elements : 4362
    Stream size : 61.5 MiB (0%)
    Title : Commentary
    Language : English
    Default : No
    Forced : No
    Text #33
    ID : 37
    Format : PGS
    Muxing mode : zlib
    Codec ID : S_HDMV/PGS
    Codec ID/Info : Picture based subtitle format used on BDs/HD-DVDs
    Duration : 1 h 53 min
    Bit rate : 63.6 kb/s
    Count of elements : 4344
    Stream size : 51.7 MiB (0%)
    Title : Commentary
    Language : Danish
    Default : No
    Forced : No
    Text #34
    ID : 38
    Format : PGS
    Muxing mode : zlib
    Codec ID : S_HDMV/PGS
    Codec ID/Info : Picture based subtitle format used on BDs/HD-DVDs
    Duration : 1 h 53 min
    Bit rate : 62.1 kb/s
    Count of elements : 4336
    Stream size : 50.5 MiB (0%)
    Title : Commentary
    Language : Finnish
    Default : No
    Forced : No
    Text #35
    ID : 39
    Format : PGS
    Muxing mode : zlib
    Codec ID : S_HDMV/PGS
    Codec ID/Info : Picture based subtitle format used on BDs/HD-DVDs
    Duration : 1 h 53 min
    Bit rate : 63.8 kb/s
    Count of elements : 4344
    Stream size : 51.9 MiB (0%)
    Title : Commentary
    Language : French
    Default : No
    Forced : No
    Text #36
    ID : 40
    Format : PGS
    Muxing mode : zlib
    Codec ID : S_HDMV/PGS
    Codec ID/Info : Picture based subtitle format used on BDs/HD-DVDs
    Duration : 1 h 53 min
    Bit rate : 68.9 kb/s
    Count of elements : 4344
    Stream size : 56.0 MiB (0%)
    Title : Commentary
    Language : German
    Default : No
    Forced : No
    Text #37
    ID : 41
    Format : PGS
    Muxing mode : zlib
    Codec ID : S_HDMV/PGS
    Codec ID/Info : Picture based subtitle format used on BDs/HD-DVDs
    Duration : 1 h 53 min
    Bit rate : 62.1 kb/s
    Count of elements : 4344
    Stream size : 50.5 MiB (0%)
    Title : Commentary
    Language : Italian
    Default : No
    Forced : No
    Text #38
    ID : 42
    Format : PGS
    Muxing mode : zlib
    Codec ID : S_HDMV/PGS
    Codec ID/Info : Picture based subtitle format used on BDs/HD-DVDs
    Duration : 1 h 53 min
    Bit rate : 35.9 kb/s
    Count of elements : 2542
    Stream size : 29.2 MiB (0%)
    Title : Commentary
    Language : Japanese
    Default : No
    Forced : No
    Text #39
    ID : 43
    Format : PGS
    Muxing mode : zlib
    Codec ID : S_HDMV/PGS
    Codec ID/Info : Picture based subtitle format used on BDs/HD-DVDs
    Duration : 1 h 53 min
    Bit rate : 48.6 kb/s
    Count of elements : 4346
    Stream size : 39.5 MiB (0%)
    Title : Commentary
    Language : Korean
    Default : No
    Forced : No
    Text #40
    ID : 44
    Format : PGS
    Muxing mode : zlib
    Codec ID : S_HDMV/PGS
    Codec ID/Info : Picture based subtitle format used on BDs/HD-DVDs
    Duration : 1 h 53 min
    Bit rate : 64.8 kb/s
    Count of elements : 4344
    Stream size : 52.7 MiB (0%)
    Title : Commentary
    Language : Norwegian
    Default : No
    Forced : No
    Text #41
    ID : 45
    Format : PGS
    Muxing mode : zlib
    Codec ID : S_HDMV/PGS
    Codec ID/Info : Picture based subtitle format used on BDs/HD-DVDs
    Duration : 1 h 53 min
    Bit rate : 61.9 kb/s
    Count of elements : 4330
    Stream size : 50.4 MiB (0%)
    Title : Commentary
    Language : Russian
    Default : No
    Forced : No
    Text #42
    ID : 46
    Format : PGS
    Muxing mode : zlib
    Codec ID : S_HDMV/PGS
    Codec ID/Info : Picture based subtitle format used on BDs/HD-DVDs
    Duration : 1 h 53 min
    Bit rate : 68.3 kb/s
    Count of elements : 4344
    Stream size : 55.6 MiB (0%)
    Title : Commentary (Castilian)
    Language : Spanish
    Default : No
    Forced : No
    Text #43
    ID : 47
    Format : PGS
    Muxing mode : zlib
    Codec ID : S_HDMV/PGS
    Codec ID/Info : Picture based subtitle format used on BDs/HD-DVDs
    Duration : 1 h 53 min
    Bit rate : 70.8 kb/s
    Count of elements : 4344
    Stream size : 57.6 MiB (0%)
    Title : Commentary (Latin American)
    Language : Spanish
    Default : No
    Forced : No
    Text #44
    ID : 48
    Format : PGS
    Muxing mode : zlib
    Codec ID : S_HDMV/PGS
    Codec ID/Info : Picture based subtitle format used on BDs/HD-DVDs
    Duration : 1 h 53 min
    Bit rate : 76.0 kb/s
    Count of elements : 4344
    Stream size : 61.8 MiB (0%)
    Title : Commentary
    Language : Swedish
    Default : No
    Forced : No
    Menu
    00:00:00.000 : en:Chapter 1
    00:03:28.542 : en:Chapter 2
    00:07:34.287 : en:Chapter 3
    00:11:41.868 : en:Chapter 4
    00:15:43.776 : en:Chapter 5
    00:18:37.074 : en:Chapter 6
    00:25:24.148 : en:Chapter 7
    00:31:40.023 : en:Chapter 8
    00:34:18.974 : en:Chapter 9
    00:40:07.113 : en:Chapter 10
    00:44:35.756 : en:Chapter 11
    00:49:07.444 : en:Chapter 12
    00:55:37.834 : en:Chapter 13
    00:58:57.075 : en:Chapter 14
    01:02:55.855 : en:Chapter 15
    01:10:39.777 : en:Chapter 16
    01:13:42.084 : en:Chapter 17
    01:19:33.143 : en:Chapter 18
    01:22:35.367 : en:Chapter 19
    01:25:48.727 : en:Chapter 20
    01:30:38.016 : en:Chapter 21
    01:32:47.854 : en:Chapter 22
    01:37:59.290 : en:Chapter 23
    01:45:00.711 : en:Chapter 24
    Screenshot (Phải chuột vào ảnh, mở với thẻ mới để xem ảnh lớn)
    [​IMG] [​IMG] [​IMG]
    Review

    Download (1link ~44.53Gb)
     
    thuanphat, viinh, hienlpcdc and 12 others like this.

Chia sẻ trang này