[Hành động] Flying Guillotine 2 1977 1080p NF WEB DL DDP 2.0 x264 - HDVN ~ Huyết Trích Tử 2 (Vietsub

Thảo luận trong 'WEB-DL, HDTV' bắt đầu bởi adm820, 22/10/19.

  1. adm820

    adm820 Moderator Thành viên BQT

    Tham gia ngày:
    1/12/10
    Bài viết:
    6,456
    Đã được cảm ơn:
    147,091
    Giới tính:
    Nam
    [​IMG]

    upload_2019-10-22_23-6-8.png


    upload_2019-10-22_23-6-23.png

    Mã:

    Format                      : Matroska
    
    	

    Format version : Version 4 File size : 3.02 GiB Duration : 1 h 28 min Overall bit rate mode : Variable Overall bit rate : 4 892 kb/s Encoded date : UTC 2019-10-21 05:42:37 Writing application : mkvmerge v32.0.0 ('Astral Progressions') 32-bit Writing library : libebml v1.3.7 + libmatroska v1.5.0 Video ID : 1 Format : AVC Format/Info : Advanced Video Codec Format profile : Main@L4 Format settings : CABAC / 3 Ref Frames Format settings, CABAC : Yes Format settings, Reference : 3 frames Codec ID : V_MPEG4/ISO/AVC Duration : 1 h 28 min Bit rate mode : Variable Bit rate : 4 640 kb/s Maximum bit rate : 6 960 kb/s Width : 1 920 pixels Height : 1 080 pixels Display aspect ratio : 16:9 Frame rate mode : Constant Frame rate : 25.000 FPS Color space : YUV Chroma subsampling : 4:2:0 Bit depth : 8 bits Scan type : Progressive Bits/(Pixel*Frame) : 0.090 Stream size : 2.86 GiB (95%) Writing library : x264 core 148 r2715 7e75228 Encoding settings : cabac=1 / ref=3 / deblock=1:0:0 / analyse=0x1:0x111 / me=umh / subme=10 / psy=1 / psy_rd=1.00:0.00 / mixed_ref=1 / me_range=24 / chroma_me=1 / trellis=2 / 8x8dct=0 / cqm=0 / deadzone=21,11 / fast_pskip=1 / chroma_qp_offset=-2 / threads=8 / lookahead_threads=1 / sliced_threads=0 / nr=0 / decimate=1 / interlaced=0 / bluray_compat=0 / stitchable=1 / constrained_intra=0 / bframes=2 / b_pyramid=0 / b_adapt=2 / b_bias=0 / direct=3 / weightb=1 / open_gop=0 / weightp=2 / keyint=50 / keyint_min=26 / scenecut=0 / intra_refresh=0 / rc_lookahead=50 / rc=2pass / mbtree=1 / bitrate=4640 / ratetol=1.0 / qcomp=0.50 / qpmin=6 / qpmax=51 / qpstep=4 / cplxblur=20.0 / qblur=0.5 / vbv_maxrate=6960 / vbv_bufsize=9280 / nal_hrd=vbr / filler=0 / ip_ratio=1.40 / aq=1:1.00 Default : Yes Forced : No Audio #1 ID : 2 Format : E-AC-3 Format/Info : Enhanced AC-3 Commercial name : Dolby Digital Plus Codec ID : A_EAC3 Duration : 1 h 28 min Bit rate mode : Constant Bit rate : 128 kb/s Channel(s) : 2 channels Channel layout : L R Sampling rate : 48.0 kHz Frame rate : 31.250 FPS (1536 SPF) Compression mode : Lossy Stream size : 80.9 MiB (3%) Title : English Language : English Service kind : Complete Main Default : Yes Forced : No Audio #2 ID : 3 Format : E-AC-3 Format/Info : Enhanced AC-3 Commercial name : Dolby Digital Plus Codec ID : A_EAC3 Duration : 1 h 28 min Bit rate mode : Constant Bit rate : 128 kb/s Channel(s) : 2 channels Channel layout : L R Sampling rate : 48.0 kHz Frame rate : 31.250 FPS (1536 SPF) Compression mode : Lossy Stream size : 80.9 MiB (3%) Title : Mandarin Language : Chinese Service kind : Complete Main Default : No Forced : No Text #1 ID : 4 Format : UTF-8 Codec ID : S_TEXT/UTF8 Codec ID/Info : UTF-8 Plain Text Duration : 1 h 27 min Bit rate : 0 b/s Count of elements : 27 Stream size : 629 Bytes (0%) Title : English [Forced] Language : English Default : No Forced : Yes Text #2 ID : 5 Format : UTF-8 Codec ID : S_TEXT/UTF8 Codec ID/Info : UTF-8 Plain Text Duration : 1 h 22 min Bit rate : 43 b/s Count of elements : 942 Stream size : 26.5 KiB (0%) Title : English [Full] Language : English Default : No Forced : No Text #3 ID : 6 Format : UTF-8 Codec ID : S_TEXT/UTF8 Codec ID/Info : UTF-8 Plain Text Duration : 1 h 27 min Bit rate : 41 b/s Count of elements : 942 Stream size : 26.7 KiB (0%) Title : Spanish [Full] Language : Spanish Default : No Forced : No Text #4 ID : 7 Format : UTF-8 Codec ID : S_TEXT/UTF8 Codec ID/Info : UTF-8 Plain Text Duration : 1 h 27 min Bit rate : 41 b/s Count of elements : 942 Stream size : 26.6 KiB (0%) Title : German [Full] Language : German Default : No Forced : No Text #5 ID : 8 Format : UTF-8 Codec ID : S_TEXT/UTF8 Codec ID/Info : UTF-8 Plain Text Duration : 1 h 27 min Bit rate : 41 b/s Count of elements : 942 Stream size : 26.5 KiB (0%) Title : Brazilian Portuguese [Full] Language : Portuguese Default : No Forced : No Text #6 ID : 9 Format : UTF-8 Codec ID : S_TEXT/UTF8 Codec ID/Info : UTF-8 Plain Text Duration : 1 h 27 min Bit rate : 42 b/s Count of elements : 942 Stream size : 27.0 KiB (0%) Title : Indonesian [Full] Language : Indonesian Default : No Forced : No Text #7 ID : 10 Format : UTF-8 Codec ID : S_TEXT/UTF8 Codec ID/Info : UTF-8 Plain Text Duration : 1 h 27 min Bit rate : 52 b/s Count of elements : 942 Stream size : 33.9 KiB (0%) Title : Vietnamese [Full] Language : Vietnamese Default : No Forced : No Text #8 ID : 11 Format : UTF-8 Codec ID : S_TEXT/UTF8 Codec ID/Info : UTF-8 Plain Text Duration : 1 h 27 min Bit rate : 96 b/s Count of elements : 942 Stream size : 61.6 KiB (0%) Title : Thai [Full] Language : Thai Default : No Forced : No Text #9 ID : 12 Format : UTF-8 Codec ID : S_TEXT/UTF8 Codec ID/Info : UTF-8 Plain Text Duration : 1 h 27 min Bit rate : 43 b/s Count of elements : 943 Stream size : 27.8 KiB (0%) Title : Korean [Full] Language : Korean Default : No Forced : No Text #10 ID : 13 Format : UTF-8 Codec ID : S_TEXT/UTF8 Codec ID/Info : UTF-8 Plain Text Duration : 1 h 25 min Bit rate : 35 b/s Count of elements : 1135 Stream size : 22.4 KiB (0%) Title : Chinese (Simplified) [SDH] Language : Chinese Default : No Forced : No Text #11 ID : 14 Format : UTF-8 Codec ID : S_TEXT/UTF8 Codec ID/Info : UTF-8 Plain Text Duration : 1 h 25 min Bit rate : 38 b/s Count of elements : 1176 Stream size : 24.2 KiB (0%) Title : Chinese (Traditional) [SDH] Language : Chinese Default : No Forced : No Text #12 ID : 15 Format : UTF-8 Codec ID : S_TEXT/UTF8 Codec ID/Info : UTF-8 Plain Text Duration : 1 h 27 min Bit rate : 38 b/s Count of elements : 904 Stream size : 24.5 KiB (0%) Title : Japanese [Full] Language : Japanese Default : No Forced : No
    [​IMG]
    [​IMG]
    [​IMG]
     
  2. adm820

    adm820 Moderator Thành viên BQT

    Tham gia ngày:
    1/12/10
    Bài viết:
    6,456
    Đã được cảm ơn:
    147,091
    Giới tính:
    Nam
    Bộ phim đc tải về từ Netflix có săn sub Việt

    Link tải

    Nhấn nút Cảm ơn (dưới chân bài) để thấy link!



    (Phim có 2 audio : Eng và Chi )



     

Chia sẻ trang này