[Hành động - Gay cấn][M2TS] Anna 2019 1080p Blu-ray AVC Atmos 7.1

Thảo luận trong 'Bluray Remux' bắt đầu bởi Xperios, 20/9/19.

  1. Xperios

    Xperios Well-Known Member

    Tham gia ngày:
    25/8/13
    Bài viết:
    1,013
    Đã được cảm ơn:
    8,117
    Giới tính:
    Nam
    Anna 2019

    [​IMG]


    Screenshot

    [​IMG]
    [​IMG]
    [​IMG]

    [​IMG]

    [​IMG]
    [​IMG]
    [​IMG]
    [​IMG]
    [​IMG]
    [​IMG]
    [​IMG]
    [​IMG]
    [​IMG]
    [​IMG]
    [​IMG]
    [​IMG]
    [​IMG]
    [​IMG]
    [​IMG]


    Media info

    Mã:
    General
    ID                          : 0 (0x0)
    Complete name               : Anna 2019 1080p Blu-ray AVC Atmos 7.1.m2ts
    Format                      : BDAV
    Format/Info                 : Blu-ray Video
    File size                   : 33.4 GiB
    Duration                    : 1 h 58 min
    Overall bit rate mode       : Variable
    Overall bit rate            : 40.2 Mb/s
    Maximum Overall bit rate    : 48.0 Mb/s
    Video
    ID                          : 4113 (0x1011)
    Menu ID                     : 1 (0x1)
    Format                      : AVC
    Format/Info                 : Advanced Video Codec
    Format profile              : High@L4.1
    Format settings             : CABAC / 4 Ref Frames
    Format settings, CABAC      : Yes
    Format settings, Reference  : 4 frames
    Codec ID                    : 27
    Duration                    : 1 h 58 min
    Bit rate mode               : Variable
    Bit rate                    : 37.9 Mb/s
    Maximum bit rate            : 35.0 Mb/s
    Width                       : 1 920 pixels
    Height                      : 1 080 pixels
    Display aspect ratio        : 16:9
    Frame rate                  : 23.976 (24000/1001) FPS
    Color space                 : YUV
    Chroma subsampling          : 4:2:0
    Bit depth                   : 8 bits
    Scan type                   : Progressive
    Bits/(Pixel*Frame)          : 0.763
    Stream size                 : 31.5 GiB (94%)
    Audio
    ID                          : 4352 (0x1100)
    Menu ID                     : 1 (0x1)
    Format                      : AC-3 MLP FBA 16-ch
    Format/Info                 : Audio Coding 3 + Meridian Lossless Packing FBA with 16-channel presentation
    Commercial name             : Dolby TrueHD with Dolby Atmos
    Muxing mode                 : Stream extension
    Codec ID                    : 131
    Duration                    : 1 h 58 min
    Bit rate mode               : Variable
    Bit rate                    : 640 kb/s
    Maximum bit rate            : 6 318 kb/s
    Channel(s)                  : 8 channels
    Channel layout              : L R C LFE Ls Rs Lb Rb
    Sampling rate               : 48.0 kHz
    Frame rate                  : 31.250 FPS (1536 SPF)
    Bit depth                   : 16 bits
    Compression mode            : Lossy
    Stream size                 : 545 MiB (2%)
    Language                    : English
    Service kind                : Complete Main
    Number of dynamic objects   : 15
    Bed channel count           : 1 channel
    Bed channel configuration   : LFE
    Text
    ID                          : 4608 (0x1200)
    Menu ID                     : 1 (0x1)
    Format                      : PGS
    Codec ID                    : 144
    Language                    : English

    Nội dung

    Anna vốn là một cô gái xinh đẹp nhưng số phận không may đưa đẩy cô làm vợ của một gã đàn ông vũ phu. Nhưng rồi cuộc đời Anna bước sang trang mới khi cô chấp nhận lời đề nghị của Alex - một sĩ quan Ủy ban An ninh Quốc gia Nga KGB, trở thành một sát thủ dưới vỏ bọc người mẫu để đổi lấy cuộc sống tự do sau khi hoàn thành nhiệm vụ. Sở hữu vẻ đẹp thần bí cùng những kỹ năng chiến đấu ấn tượng, Anna nhanh chóng trở thành một trong những sát thủ nguy hiểm nhất thế giới. Thế nhưng liệu nhiệm vụ có quá nhiều lợi ích mà Alex đưa cho Anna có dễ dàng như vẻ bề ngoài hay ẩn chứa một âm mưu đáng sợ bên trong? Cô gái trẻ liệu có thể trở về với cuộc sống tự do như cô mong đợi?


    Download

    Nhấn nút Cảm ơn (dưới chân bài) để thấy link!



    Phụ đề

    Nhấn nút Cảm ơn (dưới chân bài) để thấy link!
     
  2. arowanaking

    arowanaking Member

    Tham gia ngày:
    20/11/10
    Bài viết:
    113
    Đã được cảm ơn:
    8
    Cám ơn M2TS file.
     

Chia sẻ trang này