[Other] [Hành Động - Hài] The Spy: Undercover Operation 2013 720p HDRip H264-Mbaro ~ Điệp Viên Sợ Vợ

Thảo luận trong 'Server nội khác' bắt đầu bởi #kulee@, 13/2/14.

  1. #kulee@

    #kulee@ Banned

    Tham gia ngày:
    2/2/10
    Bài viết:
    3,233
    Đã được cảm ơn:
    2,840
    The Spy: Undercover Operation 2013 720p HDRip H264-Mbaro
    Siêu Điệp Viên

    6.8/10 from 94 users



    [​IMG]

    [​IMG]

    Mã:
    Format                                   : MPEG-4
    Format profile                           : Base Media
    Codec ID                                 : isom
    File size                                : 3.55 GiB
    Duration                                 : 2h 1mn
    Overall bit rate mode                    : Variable
    Overall bit rate                         : 4 199 Kbps
    Writing application                      : Lavf52.61.0
    
    
    
    
    Video
    
    
    ID                                       : 1
    
    
    Format                                   : AVC
    Format/Info                              : Advanced Video Codec
    Format profile                           : Baseline@L3.1
    Format settings, CABAC                   : No
    Format settings, ReFrames                : 1 frame
    Format settings, GOP                     : M=1, N=96
    Codec ID                                 : avc1
    Codec ID/Info                            : Advanced Video Coding
    Duration                                 : 2h 1mn
    Bit rate                                 : 3 995 Kbps
    Width                                    : 1 280 pixels
    Height                                   : 720 pixels
    Display aspect ratio                     : 16:9
    Frame rate mode                          : Constant
    Frame rate                               : 23.976 fps
    Color space                              : YUV
    Chroma subsampling                       : 4:2:0
    Bit depth                                : 8 bits
    Scan type                                : Progressive
    Bits/(Pixel*Frame)                       : 0.181
    Stream size                              : 3.39 GiB (95%)
    Writing library                          : x264 core 85 r1442 781d300
    Encoding settings                        : cabac=0 / ref=1 / deblock=0:0:0 / analyse=0x1:0x111 / me=umh / subme=7 / psy=0 / mixed_ref=0 / me_range=16 / chroma_me=1 / trellis=0 / 8x8dct=0 / cqm=0 / deadzone=21,11 / fast_pskip=0 / chroma_qp_offset=0 / threads=24 / sliced_threads=0 / nr=0 / decimate=1 / mbaff=0 / constrained_intra=0 / bframes=0 / wpredp=0 / keyint=96 / keyint_min=49 / scenecut=0 / intra_refresh=0 / rc=2pass / mbtree=0 / bitrate=3995 / ratetol=0.1 / qcomp=0.60 / qpmin=10 / qpmax=51 / qpstep=4 / cplxblur=20.0 / qblur=0.5 / ip_ratio=1.41 / aq=1:1.00
    Language                                 : English
    
    
    Audio
    ID                                       : 2
    Format                                   : AAC
    Format/Info                              : Advanced Audio Codec
    Format profile                           : LC
    Codec ID                                 : 40
    Duration                                 : 2h 1mn
    Bit rate mode                            : Variable
    Bit rate                                 : 192 Kbps
    Channel count                            : 2 channels
    Channel positions                        : Front: L R
    Sampling rate                            : 48.0 KHz
    Compression mode                         : Lossy
    Stream size                              : 164 MiB (5%)
    Language                                 : English
    [​IMG]
    [​IMG]
    [​IMG] [​IMG] [​IMG] [​IMG] [​IMG] [​IMG]

    [​IMG]
    [video=youtube;uuRN6kL8pm0]https://www.youtube.com/watch?v=uuRN6kL8pm0[/video]

    1 Link ~ 3,56 GB
    [​IMG]
    Nhấn nút Cảm ơn (dưới chân bài) để thấy link!

    [​IMG]
    Nhấn nút Cảm ơn (dưới chân bài) để thấy link!


    [​IMG]
    SUB VIỆT
    +++++++++++++++++++++++++++++++++++++++++++++++++
    Kho Phim HD Update Hằng Ngày
    ++++++++++++++++++++++++++++++++++++​
     
  2. hiphiphip

    hiphiphip Member

    Tham gia ngày:
    25/4/11
    Bài viết:
    253
    Đã được cảm ơn:
    7
    Nghề nghiệp:
    sale director
    Nơi ở:
    VN
    Ðề: [Hành Động - Hài] The Spy: Undercover Operation 2013 720p HDRip H264-Mbaro ~ Điệp Viên Sợ Vợ

    Đã dich phim này.
    Hiện tại do 1 số trang phim online họ lấy sub việt của các subber để kinh doanh nên mình ko upload sub lên subscene nữa . mình sẽ up link và sub việt trên face riêng của mình , các bạn có thể vào load về xem và làm ơn không public ra ngoài nhé .. https://www.facebook.com/tunghuyn
     

Chia sẻ trang này