[Hành động]Infernal Affairs Trilogy Bluray 1080p DTS x264-CHD-Vô Gian Đạo

Thảo luận trong 'Fshare.vn' bắt đầu bởi acongahn, 29/12/11.

  1. acongahn

    acongahn New Member

    Tham gia ngày:
    2/12/11
    Bài viết:
    544
    Đã được cảm ơn:
    325
    Điểm thành tích:
    0
    Nghề nghiệp:
    Bán Trà Đá
    Nơi ở:
    Việt Nam Đông Kinh
    Tiền:
    659 CR
    Infernal Affairs Trilogy Bluray 1080p DTS x264-CHD
    Vô Gian Đạo (2002-2003)-Lưu Đức Hoa-Lương Triều Vĩ

    [​IMG]

    [​IMG]

    PHẦN 1

    Mã:
    General
    Unique ID                      : 179762552103174516660596210590727781811 (0x873D02193B2F7336A71C8B72A5F7BDB3)
    Complete name                  : H:\MOVIES\Phim Lẻ\Lưu Đức Hoa [Andy Lau]\Infernal.Affairs.(2002-2003)[Vô Gian Đạo I II III]\Infernal.Affairs.2002.Bluray.1080p.DTS.3Audio.x264-CHD [Vô Gian Đạo 1]\Infernal.Affairs.2002.Bluray.1080p.DTS.3Audio.x264-CHD.mkv
    Format                         : Matroska
    
    
    Format version                 : Version 2
    File size                      : 8.72 GiB
    Duration                       : 1h 40mn
    Overall bit rate               : 12.4 Mbps
    Encoded date                   : UTC 2010-05-28 10:23:46
    Writing application            : mkvmerge v3.4.0 ('Rapunzel') built on May 15 2010 09:38:20
    Writing library                : libebml v0.8.0 + libmatroska v0.9.0
    
    Video
    ID                             : 1
    Format                         : AVC
    Format/Info                    : Advanced Video Codec
    Format profile                 : High@L4.1
    Format settings, CABAC         : Yes
    Format settings, ReFrames      : 5 frames
    Codec ID                       : V_MPEG4/ISO/AVC
    Duration                       : 1h 40mn
    Bit rate                       : 10 000 Kbps
    Width                          : 1 920 pixels
    Height                         : 832 pixels
    Display aspect ratio           : 2.35:1
    Frame rate                     : 24.000 fps
    Color space                    : YUV
    Chroma subsampling             : 4:2:0
    Bit depth                      : 8 bits
    Scan type                      : Progressive
    Bits/(Pixel*Frame)             : 0.261
    Stream size                    : 6.88 GiB (79%)
    Title                          : Infernal.Affairs.2002.Bluray.1080p.DTS.3Audio.x264-CHD
    Writing library                : x264 core 96 r1602 69588a7
    Encoding settings              : cabac=1 / ref=5 / deblock=1:-3:-3 / analyse=0x3:0x133 / me=umh / subme=10 / psy=1 / psy_rd=1.00:0.15 / mixed_ref=1 / me_range=64 / chroma_me=1 / trellis=2 / 8x8dct=1 / cqm=2 / deadzone=21,11 / fast_pskip=0 / chroma_qp_offset=-3 / threads=12 / sliced_threads=0 / nr=0 / decimate=0 / interlaced=0 / constrained_intra=0 / bframes=3 / b_pyramid=2 / b_adapt=2 / b_bias=0 / direct=3 / weightb=1 / weightp=2 / keyint=50 / keyint_min=5 / scenecut=40 / intra_refresh=0 / rc_lookahead=40 / rc=2pass / mbtree=1 / bitrate=10000 / ratetol=2.0 / qcomp=0.65 / qpmin=10 / qpmax=51 / qpstep=4 / cplxblur=20.0 / qblur=0.5 / vbv_maxrate=50000 / vbv_bufsize=50000 / ip_ratio=1.40 / aq=1:1.00 / zones=140707,145171,b=0.4 / nal_hrd=none
    Language                       : Chinese
    
    Audio #1
    ID                             : 2
    Format                         : DTS
    Format/Info                    : Digital Theater Systems
    Codec ID                       : A_DTS
    Duration                       : 1h 40mn
    Bit rate mode                  : Constant
    Bit rate                       : 1 510 Kbps
    Channel(s)                     : 6 channels
    Channel positions              : Front: L C R, Side: L R, LFE
    Sampling rate                  : 48.0 KHz
    Bit depth                      : 24 bits
    Compression mode               : Lossy
    Stream size                    : 1.06 GiB (12%)
    Title                          : DTS 5.1ch 1536K 粤语
    Language                       : Chinese
    
    Audio #2
    ID                             : 3
    Format                         : AC-3
    Format/Info                    : Audio Coding 3
    Mode extension                 : CM (complete main)
    Codec ID                       : A_AC3
    Duration                       : 1h 40mn
    Bit rate mode                  : Constant
    Bit rate                       : 640 Kbps
    Channel(s)                     : 6 channels
    Channel positions              : Front: L C R, Side: L R, LFE
    Sampling rate                  : 48.0 KHz
    Bit depth                      : 16 bits
    Compression mode               : Lossy
    Stream size                    : 461 MiB (5%)
    Title                          : AC3 5.1ch 640K 国语
    Language                       : Chinese
    
    Audio #3
    ID                             : 4
    Format                         : AC-3
    Format/Info                    : Audio Coding 3
    Mode extension                 : CM (complete main)
    Codec ID                       : A_AC3
    Duration                       : 1h 40mn
    Bit rate mode                  : Constant
    Bit rate                       : 224 Kbps
    Channel(s)                     : 2 channels
    Channel positions              : Front: L R
    Sampling rate                  : 48.0 KHz
    Bit depth                      : 16 bits
    Compression mode               : Lossy
    Stream size                    : 162 MiB (2%)
    Title                          : AC3 2.0ch 224K 导评
    Language                       : Chinese
    
    
    PHẦN 2
    Mã:
    General
    Unique ID                      : 246632195837460513099687944704905344777 (0xB98BA2143D60DE9BBFF848ABDF4A7709)
    Complete name                  : H:\MOVIES\Phim Lẻ\Lưu Đức Hoa [Andy Lau]\Infernal.Affairs.(2002-2003)[Vô Gian Đạo I II III]\Infernal.Affairs.II.2003.Bluray.1080p.DTS.3Audio.x264-CHD [Vô Gian Đạo 2]\Infernal.Affairs.II.2003.Bluray.1080p.DTS.3Audio.x264-CHD.mkv
    Format                         : Matroska
    Format version                 : Version 2
    File size                      : 10.9 GiB
    Duration                       : 1h 59mn
    Overall bit rate               : 13.0 Mbps
    Encoded date                   : UTC 2010-05-28 10:33:37
    Writing application            : mkvmerge v3.4.0 ('Rapunzel') built on May 15 2010 09:38:20
    Writing library                : libebml v0.8.0 + libmatroska v0.9.0
    
    Video
    ID                             : 1
    Format                         : AVC
    Format/Info                    : Advanced Video Codec
    Format profile                 : High@L4.1
    Format settings, CABAC         : Yes
    Format settings, ReFrames      : 5 frames
    Codec ID                       : V_MPEG4/ISO/AVC
    Duration                       : 1h 59mn
    Bit rate                       : 10.7 Mbps
    Width                          : 1 920 pixels
    Height                         : 792 pixels
    Display aspect ratio           : 2.40:1
    Frame rate                     : 24.000 fps
    Color space                    : YUV
    Chroma subsampling             : 4:2:0
    Bit depth                      : 8 bits
    Scan type                      : Progressive
    Bits/(Pixel*Frame)             : 0.293
    Stream size                    : 8.69 GiB (80%)
    Title                          : Infernal.Affairs.II.2003.Bluray.1080p.DTS.3Audio.x264-CHD
    Writing library                : x264 core 96 r1602 69588a7
    Encoding settings              : cabac=1 / ref=5 / deblock=1:-3:-3 / analyse=0x3:0x133 / me=umh / subme=10 / psy=1 / psy_rd=1.00:0.15 / mixed_ref=1 / me_range=64 / chroma_me=1 / trellis=2 / 8x8dct=1 / cqm=2 / deadzone=21,11 / fast_pskip=0 / chroma_qp_offset=-3 / threads=12 / sliced_threads=0 / nr=0 / decimate=0 / interlaced=0 / constrained_intra=0 / bframes=4 / b_pyramid=2 / b_adapt=2 / b_bias=0 / direct=3 / weightb=1 / weightp=2 / keyint=50 / keyint_min=5 / scenecut=40 / intra_refresh=0 / rc_lookahead=40 / rc=2pass / mbtree=1 / bitrate=10675 / ratetol=2.0 / qcomp=0.65 / qpmin=10 / qpmax=51 / qpstep=4 / cplxblur=20.0 / qblur=0.5 / vbv_maxrate=50000 / vbv_bufsize=50000 / ip_ratio=1.40 / aq=1:1.00 / zones=166100,172033,b=0.4 / nal_hrd=none
    Language                       : Chinese
    
    Audio #1
    ID                             : 2
    Format                         : DTS
    Format/Info                    : Digital Theater Systems
    Format profile                 : ES
    Codec ID                       : A_DTS
    Duration                       : 1h 59mn
    Bit rate mode                  : Constant
    Bit rate                       : 1 510 Kbps
    Channel(s)                     : 7 channels / 6 channels
    Channel positions              : Front: L C R, Side: L R, Back: C, LFE / Front: L C R, Side: L R, LFE
    Sampling rate                  : 48.0 KHz
    Bit depth                      : 24 bits
    Compression mode               : Lossy
    Stream size                    : 1.26 GiB (12%)
    Title                          : DTS 5.1ch 1536K 粤语
    Language                       : Chinese
    
    Audio #2
    ID                             : 3
    Format                         : AC-3
    Format/Info                    : Audio Coding 3
    Mode extension                 : CM (complete main)
    Codec ID                       : A_AC3
    Duration                       : 1h 59mn
    Bit rate mode                  : Constant
    Bit rate                       : 640 Kbps
    Channel(s)                     : 6 channels
    Channel positions              : Front: L C R, Side: L R, LFE
    Sampling rate                  : 48.0 KHz
    Bit depth                      : 16 bits
    Compression mode               : Lossy
    Stream size                    : 547 MiB (5%)
    Title                          : AC3 5.1ch 640K 国语
    Language                       : Chinese
    
    Audio #3
    ID                             : 4
    Format                         : AC-3
    Format/Info                    : Audio Coding 3
    Mode extension                 : CM (complete main)
    Codec ID                       : A_AC3
    Duration                       : 1h 59mn
    Bit rate mode                  : Constant
    Bit rate                       : 224 Kbps
    Channel(s)                     : 2 channels
    Channel positions              : Front: L R
    Sampling rate                  : 48.0 KHz
    Bit depth                      : 16 bits
    Compression mode               : Lossy
    Stream size                    : 191 MiB (2%)
    Title                          : AC3 2.0ch 224K 导评
    Language                       : Chinese
    
    
    PHẦN 3
    Mã:
    General
    Unique ID                      : 236458806810503782801072427499290967181 (0xB1E44F46354E8D1CB000C4C0FAD93C8D)
    Complete name                  : H:\MOVIES\Phim Lẻ\Lưu Đức Hoa [Andy Lau]\Infernal.Affairs.(2002-2003)[Vô Gian Đạo I II III]\Infernal.Affairs.III.2003.Bluray.1080p.DTS.2Audio.x264-CHD [Vô Gian Đạo 3]\Infernal.Affairs.III.2003.Bluray.1080p.DTS.2Audio.x264-CHD.mkv
    Format                         : Matroska
    Format version                 : Version 2
    File size                      : 10.8 GiB
    Duration                       : 1h 57mn
    Overall bit rate               : 13.1 Mbps
    Encoded date                   : UTC 2010-05-28 10:49:58
    Writing application            : mkvmerge v3.4.0 ('Rapunzel') built on May 15 2010 09:38:20
    Writing library                : libebml v0.8.0 + libmatroska v0.9.0
    
    Video
    ID                             : 1
    Format                         : AVC
    Format/Info                    : Advanced Video Codec
    Format profile                 : High@L4.1
    Format settings, CABAC         : Yes
    Format settings, ReFrames      : 5 frames
    Codec ID                       : V_MPEG4/ISO/AVC
    Duration                       : 1h 57mn
    Bit rate                       : 11.0 Mbps
    Width                          : 1 920 pixels
    Height                         : 792 pixels
    Display aspect ratio           : 2.40:1
    Frame rate                     : 24.000 fps
    Color space                    : YUV
    Chroma subsampling             : 4:2:0
    Bit depth                      : 8 bits
    Scan type                      : Progressive
    Bits/(Pixel*Frame)             : 0.301
    Stream size                    : 8.83 GiB (82%)
    Title                          : Infernal.Affairs.III.2003.Bluray.1080p.DTS.2Audio.x264-CHD
    Writing library                : x264 core 96 r1602 69588a7
    Encoding settings              : cabac=1 / ref=5 / deblock=1:-3:-3 / analyse=0x3:0x133 / me=umh / subme=10 / psy=1 / psy_rd=1.00:0.15 / mixed_ref=1 / me_range=64 / chroma_me=1 / trellis=2 / 8x8dct=1 / cqm=2 / deadzone=21,11 / fast_pskip=0 / chroma_qp_offset=-3 / threads=12 / sliced_threads=0 / nr=0 / decimate=0 / interlaced=0 / constrained_intra=0 / bframes=3 / b_pyramid=2 / b_adapt=2 / b_bias=0 / direct=3 / weightb=1 / weightp=2 / keyint=50 / keyint_min=5 / scenecut=40 / intra_refresh=0 / rc_lookahead=40 / rc=2pass / mbtree=1 / bitrate=11000 / ratetol=2.0 / qcomp=0.65 / qpmin=10 / qpmax=51 / qpstep=4 / cplxblur=20.0 / qblur=0.5 / vbv_maxrate=50000 / vbv_bufsize=50000 / ip_ratio=1.40 / aq=1:1.00 / zones=164883,169687,b=0.4 / nal_hrd=none
    Language                       : Chinese
    
    Audio #1
    ID                             : 2
    Format                         : DTS
    Format/Info                    : Digital Theater Systems
    Format profile                 : ES
    Codec ID                       : A_DTS
    Duration                       : 1h 57mn
    Bit rate mode                  : Constant
    Bit rate                       : 1 510 Kbps
    Channel(s)                     : 7 channels / 6 channels
    Channel positions              : Front: L C R, Side: L R, Back: C, LFE / Front: L C R, Side: L R, LFE
    Sampling rate                  : 48.0 KHz
    Bit depth                      : 24 bits
    Compression mode               : Lossy
    Stream size                    : 1.24 GiB (11%)
    Title                          : DTS 5.1ch 1536K 粤语
    Language                       : Chinese
    
    Audio #2
    ID                             : 3
    Format                         : AC-3
    Format/Info                    : Audio Coding 3
    Mode extension                 : CM (complete main)
    Codec ID                       : A_AC3
    Duration                       : 1h 57mn
    Bit rate mode                  : Constant
    Bit rate                       : 640 Kbps
    Channel(s)                     : 6 channels
    Channel positions              : Front: L C R, Side: L R, LFE
    Sampling rate                  : 48.0 KHz
    Bit depth                      : 16 bits
    Compression mode               : Lossy
    Stream size                    : 539 MiB (5%)
    Title                          : DD 5.1ch 640K 国语
    Language                       : Chinese
    
    
    [​IMG]
    [​IMG]
    PHẦN1
    [​IMG]
    PHẦN 2
    [​IMG]
    PHẦN 3
    [​IMG]
    LINK FILM VÀ SUBVIET CÙNG THƯ MỤC
     
    hoangquan652001 cảm ơn bài này.
  2. acongahn

    acongahn New Member

    Tham gia ngày:
    2/12/11
    Bài viết:
    544
    Đã được cảm ơn:
    325
    Điểm thành tích:
    0
    Nghề nghiệp:
    Bán Trà Đá
    Nơi ở:
    Việt Nam Đông Kinh
    Tiền:
    659 CR
    Ðề: [Hành động]Infernal Affairs Trilogy Bluray 1080p DTS x264-CHD-Vô Gian Đạo

    Infernal.Affairs.2002.Bluray.1080p.DTS.3Audio.x264-CHD

    [​IMG]

    1LINK~8,7Gb

    Link tải phim
     
  3. acongahn

    acongahn New Member

    Tham gia ngày:
    2/12/11
    Bài viết:
    544
    Đã được cảm ơn:
    325
    Điểm thành tích:
    0
    Nghề nghiệp:
    Bán Trà Đá
    Nơi ở:
    Việt Nam Đông Kinh
    Tiền:
    659 CR
    Ðề: [Hành động]Infernal Affairs Trilogy Bluray 1080p DTS x264-CHD-Vô Gian Đạo

    Infernal.Affairs.II.2003.Bluray.1080p.DTS.3Audio.x264-CHD

    [​IMG]

    1LINK~10,9Gb

    Link tải phim
     
    Chỉnh sửa cuối: 29/12/11
    fsvnhd, hoangquan652001 and xhdi9 like this.
  4. acongahn

    acongahn New Member

    Tham gia ngày:
    2/12/11
    Bài viết:
    544
    Đã được cảm ơn:
    325
    Điểm thành tích:
    0
    Nghề nghiệp:
    Bán Trà Đá
    Nơi ở:
    Việt Nam Đông Kinh
    Tiền:
    659 CR
    Ðề: [Hành động]Infernal Affairs Trilogy Bluray 1080p DTS x264-CHD-Vô Gian Đạo

    Infernal.Affairs.III.2003.Bluray.1080p.DTS.2Audio.x264-CHD

    [​IMG]

    1LINK~10,8Gb

    Link tải phim
     
    Chỉnh sửa cuối: 29/12/11
    fsvnhd, hoangquan652001 and xhdi9 like this.
  5. arnoldvn777

    arnoldvn777 Member

    Tham gia ngày:
    18/3/09
    Bài viết:
    208
    Đã được cảm ơn:
    8
    Điểm thành tích:
    18
    Giới tính:
    Nam
    Tiền:
    709 CR
    Ðề: [Hành động]Infernal Affairs Trilogy Bluray 1080p DTS x264-CHD-Vô Gian Đạo

    ầy.wa hay.thanks bác nhìu. ^^.vào vừa kịp lúc :D
     
  6. kiendt2110

    kiendt2110 New Member

    Tham gia ngày:
    22/2/10
    Bài viết:
    34
    Đã được cảm ơn:
    3
    Điểm thành tích:
    0
    Tiền:
    274 CR
    Ðề: [Hành động]Infernal Affairs Trilogy Bluray 1080p DTS x264-CHD-Vô Gian Đạo

    thanks bạn, phim hay.
     
  7. twingirl

    twingirl Well-Known Member

    Tham gia ngày:
    5/4/11
    Bài viết:
    4,712
    Đã được cảm ơn:
    97
    Điểm thành tích:
    48
    Tiền:
    3,297 CR
    Ðề: [Hành động]Infernal Affairs Trilogy Bluray 1080p DTS x264-CHD-Vô Gian Đạo

    Bộ này cũng chuẩn không cần chỉnh........... Thks
     
  8. huuphuoclx

    huuphuoclx Active Member

    Tham gia ngày:
    23/6/10
    Bài viết:
    976
    Đã được cảm ơn:
    44
    Điểm thành tích:
    28
    Tiền:
    439 CR
    Ðề: [Hành động]Infernal Affairs Trilogy Bluray 1080p DTS x264-CHD-Vô Gian Đạo

    không có bản 720p sao pác
     
  9. tinhte

    tinhte Well-Known Member

    Tham gia ngày:
    27/2/09
    Bài viết:
    1,406
    Đã được cảm ơn:
    271
    Điểm thành tích:
    83
    Giới tính:
    Nam
    Nơi ở:
    Hải Phòng
    Tiền:
    1,924 CR
    Ðề: [Hành động]Infernal Affairs Trilogy Bluray 1080p DTS x264-CHD-Vô Gian Đạo

    Bộ này ngon quá, kéo về lưu thôi.
     
  10. acongahn

    acongahn New Member

    Tham gia ngày:
    2/12/11
    Bài viết:
    544
    Đã được cảm ơn:
    325
    Điểm thành tích:
    0
    Nghề nghiệp:
    Bán Trà Đá
    Nơi ở:
    Việt Nam Đông Kinh
    Tiền:
    659 CR
    Ðề: [Hành động]Infernal Affairs Trilogy Bluray 1080p DTS x264-CHD-Vô Gian Đạo

    Có mà bác có mấy anh em up bản 720 mà.
    Mình thì chỉ có bản 1080 này thôi.Ổ cứng còn có 800 nên bổ bớt mấy bản rùi.
     
  11. mossti

    mossti New Member

    Tham gia ngày:
    12/12/11
    Bài viết:
    440
    Đã được cảm ơn:
    3
    Điểm thành tích:
    0
    Tiền:
    814 CR
    Ðề: [Hành động]Infernal Affairs Trilogy Bluray 1080p DTS x264-CHD-Vô Gian Đạo

    Bộ này ngon đấy phim này thì không thể bỏ qua rồi mặc dù còn có 200 nhưng cũng phải sút thôi.thank bác chủ
     
  12. ten_gi_ai_biet_dau

    ten_gi_ai_biet_dau Member

    Tham gia ngày:
    12/3/10
    Bài viết:
    71
    Đã được cảm ơn:
    5
    Điểm thành tích:
    8
    Tiền:
    762 CR
    Ðề: [Hành động]Infernal Affairs Trilogy Bluray 1080p DTS x264-CHD-Vô Gian Đạo

    kéo xong 3 phần rồi :D

    //mình cũng chưa xem bộ này nữa :(
     
  13. belota

    belota Banned

    Tham gia ngày:
    13/12/11
    Bài viết:
    107
    Đã được cảm ơn:
    0
    Điểm thành tích:
    0
    Tiền:
    61 CR
    Ðề: [Hành động]Infernal Affairs Trilogy Bluray 1080p DTS x264-CHD-Vô Gian Đạo

    Bác này cũng giồng em nè em cũng vừa kéo xong mặc dù biết phim này lâu rồi nhưng chưa lần nào xem hết cả
     
  14. meomatto

    meomatto Active Member

    Tham gia ngày:
    28/2/09
    Bài viết:
    4,131
    Đã được cảm ơn:
    23
    Điểm thành tích:
    38
    Nghề nghiệp:
    Kinh Doanh
    Nơi ở:
    Thăng Long Ngàn Năm Tuổi
    Tiền:
    144 CR
    Ðề: [Hành động]Infernal Affairs Trilogy Bluray 1080p DTS x264-CHD-Vô Gian Đạo

    Giữ hàng chuẩn bị Mút thay bản 720 cùi ở nhà. :D
    Thanks!
    Các bác thích thì cứ kéo đi, lo gì. Ổ cứng không giảm giá được đâu mà đợi giảm làm gì?????? hi
     
  15. acongahn

    acongahn New Member

    Tham gia ngày:
    2/12/11
    Bài viết:
    544
    Đã được cảm ơn:
    325
    Điểm thành tích:
    0
    Nghề nghiệp:
    Bán Trà Đá
    Nơi ở:
    Việt Nam Đông Kinh
    Tiền:
    659 CR
    Ðề: [Hành động]Infernal Affairs Trilogy Bluray 1080p DTS x264-CHD-Vô Gian Đạo

    He he bác này máu quá ta . Em săp phải múc 2 cái ổ mừng năm mới rùi không biết được giảm xu nào không.:-w
     
  16. daoba

    daoba New Member

    Tham gia ngày:
    31/12/11
    Bài viết:
    54
    Đã được cảm ơn:
    0
    Điểm thành tích:
    0
    Tiền:
    15 CR
    Ðề: [Hành động]Infernal Affairs Trilogy Bluray 1080p DTS x264-CHD-Vô Gian Đạo

    Bác này nói đúng quá.Dân chơi thì thích là chơi khỏi cần biết tăng hay là giảm.
     
  17. meomatto

    meomatto Active Member

    Tham gia ngày:
    28/2/09
    Bài viết:
    4,131
    Đã được cảm ơn:
    23
    Điểm thành tích:
    38
    Nghề nghiệp:
    Kinh Doanh
    Nơi ở:
    Thăng Long Ngàn Năm Tuổi
    Tiền:
    144 CR
    Ðề: [Hành động]Infernal Affairs Trilogy Bluray 1080p DTS x264-CHD-Vô Gian Đạo

    Vừa mua thêm ổ cứng 2T. bắt đầu xúc. Thank! :D
     
  18. acongahn

    acongahn New Member

    Tham gia ngày:
    2/12/11
    Bài viết:
    544
    Đã được cảm ơn:
    325
    Điểm thành tích:
    0
    Nghề nghiệp:
    Bán Trà Đá
    Nơi ở:
    Việt Nam Đông Kinh
    Tiền:
    659 CR
    Ðề: [Hành động]Infernal Affairs Trilogy Bluray 1080p DTS x264-CHD-Vô Gian Đạo

    Bác này giống em nhỉ em cũng mới làm 2TB xong nhưng mà là 2 cái 1TB xong.
    Múc xong mà xót hết cả ruột.X_X
     
  19. love_yejin

    love_yejin Uploader

    Tham gia ngày:
    1/2/10
    Bài viết:
    4,479
    Đã được cảm ơn:
    10,534
    Điểm thành tích:
    113
    Tiền:
    399 CR
    Ðề: [Hành động]Infernal Affairs Trilogy Bluray 1080p DTS x264-CHD-Vô Gian Đạo

    thank nhìu, chuẩn như lê duẫn, he he
     
  20. SUPERGAMER

    SUPERGAMER New Member

    Tham gia ngày:
    13/7/10
    Bài viết:
    26
    Đã được cảm ơn:
    3
    Điểm thành tích:
    3
    Tiền:
    1,060 CR
    Ðề: [Hành động]Infernal Affairs Trilogy Bluray 1080p DTS x264-CHD-Vô Gian Đạo

    link phần 3 die rùi bác ơi :(
     
    Administrator cảm ơn bài này.

Chia sẻ trang này