[Hành động] Kingdom 2019 1080p BluRay DTS x264-HDVN ~ Vương giả thiên hạ (Vietsub)

Thảo luận trong 'Fshare.vn' bắt đầu bởi adm820, 12/11/19.

  1. adm820

    adm820 Moderator Thành viên BQT

    Tham gia ngày:
    1/12/10
    Bài viết:
    6,120
    Đã được cảm ơn:
    137,306
    Giới tính:
    Nam
    [​IMG]

    [​IMG]

    [​IMG]


    Câu chuyện xảy ra trong bối cảnh nhà Tần, khoảng hơn 245 năm trước công nguyên. Các nước chư hầu giành xé lẫn nhau dẫn đến cảnh loạn lạc cho toàn lãnh thổ Trung Hoa. Trong bối cảnh đó, ở một ngôi làng nọ, Tín và Phiêu, hai cậu bé mồ côi phải sống cảnh nô lệ luôn nuôi ước vọng trở thành "Thiên hạ đệ nhất tướng quân". Nhưng 1 ngày, Phiêu được một viên quan đưa đến cung điện, bỏ lại Tín một mình ở lại ngôi làng nơi cả hai sinh sống. Vài tháng sau Phiêu trở lại gặp Tín khi bị thương rất nặng. Trong lúc hấp hối, Phiêu thúc giục Tín đi tới ngôi làng khác và tại đó Tín gặp một thiếu niên có dung mạo rất giống Phiêu - đó chính là Doanh Chính, vị vua trẻ của nhà Tần nuôi giấc mộng thống nhất lãnh thổ Trung Hoa. Liệu Tín và Doanh Chính có thể thực hiện ước mơ và làm vang danh sử sách hay không?



    Mã:
    Format                      : Matroska
    Format version              : Version 4
    File size                   : 9.37 GiB
    Duration                    : 2 h 13 min
    Overall bit rate            : 10.0 Mb/s
    Movie name                  : Jubowo @ WiKi
    Encoded date                : UTC 2019-11-12 00:16:02
    Writing application         : mkvmerge v39.0.0 ('In The Waiting Line') 64-bit
    Writing library             : libebml v1.3.9 + libmatroska v1.5.2
    
    
    Attachments                 : DFPHuaZongW5-B5 1.0.2005.12.28.ttf / 汉仪秀英体繁.ttf
    Video
    ID                          : 1
    Format                      : AVC
    Format/Info                 : Advanced Video Codec
    Format profile              : High@L4
    Format settings             : CABAC / 5 Ref Frames
    Format settings, CABAC      : Yes
    Format settings, Reference  : 5 frames
    Codec ID                    : V_MPEG4/ISO/AVC
    Duration                    : 2 h 13 min
    Bit rate                    : 8 498 kb/s
    Width                       : 1 920 pixels
    Height                      : 800 pixels
    Display aspect ratio        : 2.40:1
    Frame rate mode             : Constant
    Frame rate                  : 23.976 (24000/1001) FPS
    Color space                 : YUV
    Chroma subsampling          : 4:2:0
    Bit depth                   : 8 bits
    Scan type                   : Progressive
    Bits/(Pixel*Frame)          : 0.231
    Stream size                 : 7.95 GiB (85%)
    Writing library             : x264 core 157 r2935 545de2f
    Encoding settings           : cabac=1 / ref=5 / deblock=1:0:0 / analyse=0x3:0x113 / me=hex / subme=8 / psy=1 / psy_rd=1.00:0.00 / mixed_ref=1 / me_range=16 / chroma_me=1 / trellis=2 / 8x8dct=1 / cqm=0 / deadzone=21,11 / fast_pskip=1 / chroma_qp_offset=-2 / threads=6 / lookahead_threads=1 / sliced_threads=0 / nr=0 / decimate=1 / interlaced=0 / bluray_compat=0 / constrained_intra=0 / bframes=3 / b_pyramid=2 / b_adapt=1 / b_bias=0 / direct=3 / weightb=1 / open_gop=0 / weightp=2 / keyint=240 / keyint_min=23 / scenecut=40 / intra_refresh=0 / rc_lookahead=50 / rc=2pass / mbtree=1 / bitrate=8498 / ratetol=1.0 / qcomp=0.60 / qpmin=0 / qpmax=69 / qpstep=4 / cplxblur=20.0 / qblur=0.5 / vbv_maxrate=25000 / vbv_bufsize=31250 / nal_hrd=none / filler=0 / ip_ratio=1.40 / aq=1:1.00
    Default                     : Yes
    Forced                      : No
    Audio
    ID                          : 2
    Format                      : DTS
    Format/Info                 : Digital Theater Systems
    Codec ID                    : A_DTS
    Duration                    : 2 h 13 min
    Bit rate mode               : Constant
    Bit rate                    : 1 509 kb/s
    Channel(s)                  : 6 channels
    Channel layout              : C L R Ls Rs LFE
    Sampling rate               : 48.0 kHz
    Frame rate                  : 93.750 FPS (512 SPF)
    Bit depth                   : 24 bits
    Compression mode            : Lossy
    Stream size                 : 1.41 GiB (15%)
    Language                    : Japanese
    Default                     : Yes
    Forced                      : No

    [​IMG] [​IMG] [​IMG] [​IMG]






     
  2. babydown

    babydown Active Member

    Tham gia ngày:
    8/4/10
    Bài viết:
    225
    Đã được cảm ơn:
    76
    Bản Live Action đây rồi
     
  3. cuongnho

    cuongnho Active Member

    Tham gia ngày:
    26/5/14
    Bài viết:
    402
    Đã được cảm ơn:
    141
    Xin bản remux add subvn của bác...thank!
     
  4. adm820

    adm820 Moderator Thành viên BQT

    Tham gia ngày:
    1/12/10
    Bài viết:
    6,120
    Đã được cảm ơn:
    137,306
    Giới tính:
    Nam
    chưa có raw gốc
     
    filmHD and thekop like this.
  5. ahxdtngh

    ahxdtngh Well-Known Member

    Tham gia ngày:
    12/3/09
    Bài viết:
    1,426
    Đã được cảm ơn:
    97
    Phim này là chuyển thể từ truyện tranh hay như nào nhỉ các bác mà không thấy giới thiệu nội dung?
     
  6. adm820

    adm820 Moderator Thành viên BQT

    Tham gia ngày:
    1/12/10
    Bài viết:
    6,120
    Đã được cảm ơn:
    137,306
    Giới tính:
    Nam
    Câu chuyện xảy ra trong bối cảnh nhà Tần, khoảng hơn 245 năm trước công nguyên. Các nước chư hầu giành xé lẫn nhau dẫn đến cảnh loạn lạc cho toàn lãnh thổ Trung Hoa. Trong bối cảnh đó, ở một ngôi làng nọ, Tín và Phiêu, hai cậu bé mồ côi phải sống cảnh nô lệ luôn nuôi ước vọng trở thành "Thiên hạ đệ nhất tướng quân". Nhưng 1 ngày, Phiêu được một viên quan đưa đến cung điện, bỏ lại Tín một mình ở lại ngôi làng nơi cả hai sinh sống. Vài tháng sau Phiêu trở lại gặp Tín khi bị thương rất nặng. Trong lúc hấp hối, Phiêu thúc giục Tín đi tới ngôi làng khác và tại đó Tín gặp một thiếu niên có dung mạo rất giống Phiêu - đó chính là Doanh Chính, vị vua trẻ của nhà Tần nuôi giấc mộng thống nhất lãnh thổ Trung Hoa. Liệu Tín và Doanh Chính có thể thực hiện ước mơ và làm vang danh sử sách hay không?​
     
    filmHD, ngockylan24 and thekop like this.
  7. hoadainhan70

    hoadainhan70 Well-Known Member

    Tham gia ngày:
    11/12/09
    Bài viết:
    2,167
    Đã được cảm ơn:
    1,291
    Rất cám ơn bác chủ @adm820 Đang buồn vì không có gì xem , thế này quá tuyệt rồi , Hành động dã sử
     
    BuiAn cảm ơn bài này.
  8. adm820

    adm820 Moderator Thành viên BQT

    Tham gia ngày:
    1/12/10
    Bài viết:
    6,120
    Đã được cảm ơn:
    137,306
    Giới tính:
    Nam
    nhìn avata thấy quen quen
     
    filmHD and thekop like this.
  9. adm820

    adm820 Moderator Thành viên BQT

    Tham gia ngày:
    1/12/10
    Bài viết:
    6,120
    Đã được cảm ơn:
    137,306
    Giới tính:
    Nam
    chuẩn , đnag chờ raw
     
    filmHD and thekop like this.
  10. killer_valentine

    killer_valentine Well-Known Member

    Tham gia ngày:
    28/9/09
    Bài viết:
    228
    Đã được cảm ơn:
    288
    Chờ mãi mới thấy ra Bluray bản Live-action phim này. Cám ơn bác chủ thớt :D. Mà cho e hỏi là sub Việt phim này bác sưu tầm ở đâu hay vậy ạ, trên subscene e thấy mỗi sub Eng.
     
  11. adm820

    adm820 Moderator Thành viên BQT

    Tham gia ngày:
    1/12/10
    Bài viết:
    6,120
    Đã được cảm ơn:
    137,306
    Giới tính:
    Nam
    Tải về xem sẽ biết nhé :rolleyes::D
     
    filmHD and thekop like this.
  12. killer_valentine

    killer_valentine Well-Known Member

    Tham gia ngày:
    28/9/09
    Bài viết:
    228
    Đã được cảm ơn:
    288
    Mux thêm cho bản 720p đi bác :D
     
  13. adm820

    adm820 Moderator Thành viên BQT

    Tham gia ngày:
    1/12/10
    Bài viết:
    6,120
    Đã được cảm ơn:
    137,306
    Giới tính:
    Nam
    bản này xem ổn rồi ...
     
    filmHD and thekop like this.
  14. quangvu27

    quangvu27 Active Member

    Tham gia ngày:
    27/1/11
    Bài viết:
    418
    Đã được cảm ơn:
    81
    nghe nói phim này đang hot mà chờ bản thuyết minh
     
  15. adm820

    adm820 Moderator Thành viên BQT

    Tham gia ngày:
    1/12/10
    Bài viết:
    6,120
    Đã được cảm ơn:
    137,306
    Giới tính:
    Nam
    Mình đã cấp sub rồi mà , ai rảnh thì thuê thuyết minh thôi
     
    filmHD, thekop and buubink like this.
  16. giangkame

    giangkame Member

    Tham gia ngày:
    19/7/10
    Bài viết:
    55
    Đã được cảm ơn:
    29
    Giới tính:
    Nam
    Nghề nghiệp:
    Nhân viên
    Nơi ở:
    Hà nội
    many thanks
     
  17. vuduc2410

    vuduc2410 Active Member

    Tham gia ngày:
    20/7/09
    Bài viết:
    138
    Đã được cảm ơn:
    42
    Không hiểu film hot chỗ nào.
    Nội dung nhảm shit.
    Một thằng đầu đất vớ va vớ vẩn tự tập vs kiếm gỗ.
    Đùng cái đi đánh nhau chí choé, trận nào cũng thắng. Gặp ông sát thủ cũng kill được. Gặp tướng tài nhất cũng kill được.
    Dẫn quân vào thành thì bảo "cho cầm vũ khí" vì chưa tin nhau, vào được thành xong oánh nhau tùm lum - 50 thằng mà quẩy nát đội hình. Tên bắn, kiếm đâm - chết hết cả, nghe mấy câu "Cố lên anh em" thế là sống lại hết.
    Rồi 1 con mẹ lon ta lon ton ko có tỹ võ vẽ nào cũng chạy vào oánh trận tung trời - sống nhăn răng.
    Thất vọng cái gọi là HAY.
     
  18. babydown

    babydown Active Member

    Tham gia ngày:
    8/4/10
    Bài viết:
    225
    Đã được cảm ơn:
    76
    Nếu bạn không phải la fan của truyện Kingdom thì bạn sẽ cảm thấy như vậy
     
  19. excel123

    excel123 Member

    Tham gia ngày:
    13/10/12
    Bài viết:
    89
    Đã được cảm ơn:
    67
    Cám ơn bạn, đỡ tốn thời gian
     
  20. vuduc2410

    vuduc2410 Active Member

    Tham gia ngày:
    20/7/09
    Bài viết:
    138
    Đã được cảm ơn:
    42
    Thế chắc nên chú thích vào film là ai chưa đọc truyện thì đừng nên xem, vì xem xong cảm giác bị xúc phạm vì phản logic :)
     
    wilsonlee and babydown like this.

Chia sẻ trang này