[Hành động] Kingdom 2019 Blu-ray REMUX 1080p AVC DTS-HD MA 5.1-HDVN ~ Vương giả Thiên hạ (Vietsub)

Thảo luận trong 'Bluray Remux' bắt đầu bởi adm820, 25/11/19.

  1. adm820

    adm820 Moderator Thành viên BQT

    Tham gia ngày:
    1/12/10
    Bài viết:
    7,110
    Đã được cảm ơn:
    163,316
    Giới tính:
    Nam
    [​IMG]

    [​IMG]

    chuyện xảy ra trong bối cảnh nhà Tần, khoảng hơn 245 năm trước công nguyên. Các nước chư hầu giành xé lẫn nhau dẫn đến cảnh loạn lạc cho toàn lãnh thổ Trung Hoa. Trong bối cảnh đó, ở một ngôi làng nọ, Tín và Phiêu, hai cậu bé mồ côi phải sống cảnh nô lệ luôn nuôi ước vọng trở thành "Thiên hạ đệ nhất tướng quân". Nhưng 1 ngày, Phiêu được một viên quan đưa đến cung điện, bỏ lại Tín một mình ở lại ngôi làng nơi cả hai sinh sống. Vài tháng sau Phiêu trở lại gặp Tín khi bị thương rất nặng. Trong lúc hấp hối, Phiêu thúc giục Tín đi tới ngôi làng khác và tại đó Tín gặp một thiếu niên có dung mạo rất giống Phiêu - đó chính là Doanh Chính, vị vua trẻ của nhà Tần nuôi giấc mộng thống nhất lãnh thổ Trung Hoa. Liệu Tín và Doanh Chính có thể thực hiện ước mơ và làm vang danh sử sách hay không?

    Mã:
    General
    
    
    	

    Unique ID : 337897367145589316430909290872597689764 (0xFE34AA6EB137DBF226976B63AF28B5A4)

    Complete name : C:\Users\Administrator\Desktop\Kingdom 2019 Blu-ray REMUX 1080p AVC DTS-HD MA 5.1-HDVN.mkv Format : Matroska Format version : Version 4 File size : 26.1 GiB Duration : 2 h 13 min Overall bit rate mode : Variable Overall bit rate : 27.9 Mb/s Encoded date : UTC 2019-11-25 13:57:28 Writing application : mkvmerge v40.0.0 ('Old Town Road + Pony') 64-bit Writing library : libebml v1.3.9 + libmatroska v1.5.2 Video ID : 1 Format : AVC Format/Info : Advanced Video Codec Format profile : High@L4.1 Format settings : CABAC / 4 Ref Frames Format settings, CABAC : Yes Format settings, Reference : 4 frames Format settings, GOP : M=1, N=12 Codec ID : V_MPEG4/ISO/AVC Duration : 2 h 13 min Bit rate mode : Variable Bit rate : 24.3 Mb/s Maximum bit rate : 38.0 Mb/s Width : 1 920 pixels Height : 1 080 pixels Display aspect ratio : 16:9 Frame rate mode : Constant Frame rate : 23.976 (24000/1001) FPS Color space : YUV Chroma subsampling : 4:2:0 Bit depth : 8 bits Scan type : Progressive Bits/(Pixel*Frame) : 0.488 Stream size : 22.7 GiB (87%) Default : Yes Forced : No Audio ID : 2 Format : DTS XLL Format/Info : Digital Theater Systems Commercial name : DTS-HD Master Audio Codec ID : A_DTS Duration : 2 h 13 min Bit rate mode : Variable Bit rate : 3 648 kb/s Channel(s) : 6 channels Channel layout : C L R Ls Rs LFE Sampling rate : 48.0 kHz Frame rate : 93.750 FPS (512 SPF) Bit depth : 24 bits Compression mode : Lossless Stream size : 3.41 GiB (13%) Language : Japanese Default : Yes Forced : No Text #1 ID : 3 Format : PGS Muxing mode : zlib Codec ID : S_HDMV/PGS Codec ID/Info : Picture based subtitle format used on BDs/HD-DVDs Duration : 2 h 11 min Bit rate : 41.4 kb/s Count of elements : 3081 Stream size : 39.0 MiB (0%) Language : Japanese Default : No Forced : No Text #2 ID : 4 Format : PGS Muxing mode : zlib Codec ID : S_HDMV/PGS Codec ID/Info : Picture based subtitle format used on BDs/HD-DVDs Duration : 2 h 9 min Bit rate : 23.1 kb/s Count of elements : 2858 Stream size : 21.3 MiB (0%) Language : Vietnamese Default : Yes Forced : No

    [​IMG] [​IMG] [​IMG] [​IMG]


    Link tải


    Nhấn nút Cảm ơn (dưới chân bài) để thấy link!



    Bản 1080p Encode

    [Hành động] Kingdom 2019 1080p BluRay DTS x264-HDVN ~ Vương giả thiên hạ (Vietsub)




     
  2. Phạm Minh Hưng

    Phạm Minh Hưng Active Member

    Tham gia ngày:
    22/9/19
    Bài viết:
    117
    Đã được cảm ơn:
    178
     
  3. cuongnho

    cuongnho Active Member

    Tham gia ngày:
    26/5/14
    Bài viết:
    513
    Đã được cảm ơn:
    218
    Thank mod
     
  4. vhngan

    vhngan Active Member

    Tham gia ngày:
    14/12/11
    Bài viết:
    263
    Đã được cảm ơn:
    58
    Bác có luôn anime của bộ này không ạ?
     
    NguyenSiDuy cảm ơn bài này.
  5. adm820

    adm820 Moderator Thành viên BQT

    Tham gia ngày:
    1/12/10
    Bài viết:
    7,110
    Đã được cảm ơn:
    163,316
    Giới tính:
    Nam
    cho mình xin link imdb hay thoongt in
     
    vhngan cảm ơn bài này.
  6. vhngan

    vhngan Active Member

    Tham gia ngày:
    14/12/11
    Bài viết:
    263
    Đã được cảm ơn:
    58
  7. adm820

    adm820 Moderator Thành viên BQT

    Tham gia ngày:
    1/12/10
    Bài viết:
    7,110
    Đã được cảm ơn:
    163,316
    Giới tính:
    Nam
    KHOINGA cảm ơn bài này.

Chia sẻ trang này