[Hành động] My Schoolmate the Barbarian 2001 NF WEB DL DDP 2.0 x264 - HDVN ~ Bạn học dã man (Vietsub

Thảo luận trong 'WEB-DL, HDTV' bắt đầu bởi adm820, 22/10/19.

Tags
  1. adm820

    adm820 Moderator Thành viên BQT

    Tham gia ngày:
    1/12/10
    Bài viết:
    7,744
    Đã được cảm ơn:
    180,903
    Giới tính:
    Nam
    [​IMG]

    upload_2019-10-22_23-14-25.png

    upload_2019-10-22_23-14-40.png

    Mã:
    Format                      : Matroska
    
    
    	

    Format version : Version 4

    File size : 4.68 GiB Duration : 1 h 29 min Overall bit rate mode : Variable Overall bit rate : 7 463 kb/s Encoded date : UTC 2019-10-21 06:19:02 Writing application : mkvmerge v32.0.0 ('Astral Progressions') 32-bit Writing library : libebml v1.3.7 + libmatroska v1.5.0 Video ID : 1 Format : AVC Format/Info : Advanced Video Codec Format profile : High@L4 Format settings : CABAC / 4 Ref Frames Format settings, CABAC : Yes Format settings, Reference : 4 frames Codec ID : V_MPEG4/ISO/AVC Duration : 1 h 29 min Bit rate mode : Variable Bit rate : 7 331 kb/s Maximum bit rate : 20.0 Mb/s Width : 1 920 pixels Height : 1 080 pixels Display aspect ratio : 16:9 Frame rate mode : Constant Frame rate : 25.000 FPS Color space : YUV Chroma subsampling : 4:2:0 Bit depth : 8 bits Scan type : Progressive Bits/(Pixel*Frame) : 0.141 Stream size : 4.60 GiB (98%) Writing library : x264 core 148 r2715 7e75228 Encoding settings : cabac=1 / ref=4 / deblock=1:0:0 / analyse=0x3:0x111 / me=umh / subme=10 / psy=1 / psy_rd=1.00:0.00 / mixed_ref=1 / me_range=120 / chroma_me=1 / trellis=2 / 8x8dct=1 / cqm=0 / deadzone=21,11 / fast_pskip=1 / chroma_qp_offset=-2 / threads=8 / lookahead_threads=2 / sliced_threads=0 / nr=0 / decimate=1 / interlaced=0 / bluray_compat=0 / stitchable=1 / constrained_intra=0 / bframes=16 / b_pyramid=2 / b_adapt=2 / b_bias=0 / direct=3 / weightb=1 / open_gop=0 / weightp=2 / keyint=250 / keyint_min=126 / scenecut=0 / intra_refresh=0 / rc_lookahead=250 / rc=crf / mbtree=1 / crf=16.0 / qcomp=0.50 / qpmin=6 / qpmax=51 / qpstep=4 / vbv_maxrate=20000 / vbv_bufsize=25000 / crf_max=0.0 / nal_hrd=vbr / filler=0 / ip_ratio=1.40 / aq=1:0.80 Default : Yes Forced : No Audio ID : 2 Format : E-AC-3 Format/Info : Enhanced AC-3 Commercial name : Dolby Digital Plus Codec ID : A_EAC3 Duration : 1 h 29 min Bit rate mode : Constant Bit rate : 128 kb/s Channel(s) : 2 channels Channel layout : L R Sampling rate : 48.0 kHz Frame rate : 31.250 FPS (1536 SPF) Compression mode : Lossy Stream size : 82.2 MiB (2%) Title : Cantonese Language : Chinese Service kind : Complete Main Default : No Forced : No Text #1 ID : 3 Format : UTF-8 Codec ID : S_TEXT/UTF8 Codec ID/Info : UTF-8 Plain Text Duration : 1 h 27 min Bit rate : 56 b/s Count of elements : 1157 Stream size : 36.0 KiB (0%) Title : English [Full] Language : English Default : No Forced : No Text #2 ID : 4 Format : UTF-8 Codec ID : S_TEXT/UTF8 Codec ID/Info : UTF-8 Plain Text Duration : 1 h 28 min Bit rate : 56 b/s Count of elements : 1177 Stream size : 36.5 KiB (0%) Title : Spanish [Full] Language : Spanish Default : No Forced : No Text #3 ID : 5 Format : UTF-8 Codec ID : S_TEXT/UTF8 Codec ID/Info : UTF-8 Plain Text Duration : 1 h 28 min Bit rate : 56 b/s Count of elements : 1178 Stream size : 36.6 KiB (0%) Title : German [Full] Language : German Default : No Forced : No Text #4 ID : 6 Format : UTF-8 Codec ID : S_TEXT/UTF8 Codec ID/Info : UTF-8 Plain Text Duration : 1 h 28 min Bit rate : 57 b/s Count of elements : 1178 Stream size : 37.3 KiB (0%) Title : Brazilian Portuguese [Full] Language : Portuguese Default : No Forced : No Text #5 ID : 7 Format : UTF-8 Codec ID : S_TEXT/UTF8 Codec ID/Info : UTF-8 Plain Text Duration : 1 h 28 min Bit rate : 56 b/s Count of elements : 1177 Stream size : 36.4 KiB (0%) Title : Indonesian [Full] Language : Indonesian Default : No Forced : No Text #6 ID : 8 Format : UTF-8 Codec ID : S_TEXT/UTF8 Codec ID/Info : UTF-8 Plain Text Duration : 1 h 28 min Bit rate : 62 b/s Count of elements : 1178 Stream size : 40.6 KiB (0%) Title : Vietnamese [Full] Language : Vietnamese Default : No Forced : No Text #7 ID : 9 Format : UTF-8 Codec ID : S_TEXT/UTF8 Codec ID/Info : UTF-8 Plain Text Duration : 1 h 28 min Bit rate : 129 b/s Count of elements : 1178 Stream size : 84.3 KiB (0%) Title : Thai [Full] Language : Thai Default : No Forced : No Text #8 ID : 10 Format : UTF-8 Codec ID : S_TEXT/UTF8 Codec ID/Info : UTF-8 Plain Text Duration : 1 h 27 min Bit rate : 52 b/s Count of elements : 1154 Stream size : 33.9 KiB (0%) Title : Korean [Full] Language : Korean Default : No Forced : No Text #9 ID : 11 Format : UTF-8 Codec ID : S_TEXT/UTF8 Codec ID/Info : UTF-8 Plain Text Duration : 1 h 27 min Bit rate : 52 b/s Count of elements : 1423 Stream size : 33.8 KiB (0%) Title : Chinese (Simplified) [SDH] Language : Chinese Default : No Forced : No Text #10 ID : 12 Format : UTF-8 Codec ID : S_TEXT/UTF8 Codec ID/Info : UTF-8 Plain Text Duration : 1 h 27 min Bit rate : 59 b/s Count of elements : 1572 Stream size : 38.3 KiB (0%) Title : Chinese (Traditional) [SDH] Language : Chinese Default : No Forced : No Text #11 ID : 13 Format : UTF-8 Codec ID : S_TEXT/UTF8 Codec ID/Info : UTF-8 Plain Text Duration : 1 h 28 min Bit rate : 45 b/s Count of elements : 1125 Stream size : 29.9 KiB (0%) Title : Japanese [Full] Language : Japanese Default : No Forced : No

    [​IMG]
    [​IMG]
    [​IMG]
     
    hai12734, siromua, buunguyen and 10 others like this.
  2. adm820

    adm820 Moderator Thành viên BQT

    Tham gia ngày:
    1/12/10
    Bài viết:
    7,744
    Đã được cảm ơn:
    180,903
    Giới tính:
    Nam
    Bộ phim được tải về từ Netflix , có sẵn sub việt

    Link tải

    Nhấn nút Cảm ơn (dưới chân bài) để thấy link!
     
  3. DaTrnc

    DaTrnc New Member

    Tham gia ngày:
    7/2/16
    Bài viết:
    26
    Đã được cảm ơn:
    8
    Link die rồi, bác chủ reup lại được không ạ. Cảm ơn bác :):):)
     
  4. ivy68

    ivy68 Huyền Thoại

    Tham gia ngày:
    29/3/09
    Bài viết:
    10,270
    Đã được cảm ơn:
    4,783
    Nơi ở:
    Hà Nội
    Fshare đang tỏi theo Miếu Môn.
     

Chia sẻ trang này