[Hành động] The Flying Guillotine 1975 1080p NF WEB DL DDP 2.0 x264 - HDVN ~ Huyết Trích Tử (Vietsub

Thảo luận trong 'WEB-DL, HDTV' bắt đầu bởi adm820, 22/10/19.

  1. adm820

    adm820 Moderator Thành viên BQT

    Tham gia ngày:
    1/12/10
    Bài viết:
    6,220
    Đã được cảm ơn:
    138,901
    Giới tính:
    Nam
    [​IMG]




    upload_2019-10-22_22-57-11.png
    upload_2019-10-22_22-57-28.png

    Mã:
    Format                      : Matroska
    
    
    	

    Format version : Version 4

    File size : 5.16 GiB Duration : 1 h 41 min Overall bit rate mode : Variable Overall bit rate : 7 294 kb/s Encoded date : UTC 2019-10-21 05:24:44 Writing application : mkvmerge v32.0.0 ('Astral Progressions') 32-bit Writing library : libebml v1.3.7 + libmatroska v1.5.0 Video ID : 1 Format : AVC Format/Info : Advanced Video Codec Format profile : High@L4 Format settings : CABAC / 4 Ref Frames Format settings, CABAC : Yes Format settings, Reference : 4 frames Codec ID : V_MPEG4/ISO/AVC Duration : 1 h 41 min Bit rate mode : Variable Bit rate : 7 035 kb/s Maximum bit rate : 20.0 Mb/s Width : 1 920 pixels Height : 1 080 pixels Display aspect ratio : 16:9 Frame rate mode : Constant Frame rate : 25.000 FPS Color space : YUV Chroma subsampling : 4:2:0 Bit depth : 8 bits Scan type : Progressive Bits/(Pixel*Frame) : 0.136 Stream size : 4.97 GiB (96%) Writing library : x264 core 148 r2715 7e75228 Encoding settings : cabac=1 / ref=4 / deblock=1:0:0 / analyse=0x3:0x111 / me=umh / subme=10 / psy=1 / psy_rd=1.00:0.00 / mixed_ref=1 / me_range=120 / chroma_me=1 / trellis=2 / 8x8dct=1 / cqm=0 / deadzone=21,11 / fast_pskip=1 / chroma_qp_offset=-2 / threads=8 / lookahead_threads=2 / sliced_threads=0 / nr=0 / decimate=1 / interlaced=0 / bluray_compat=0 / stitchable=1 / constrained_intra=0 / bframes=16 / b_pyramid=2 / b_adapt=2 / b_bias=0 / direct=3 / weightb=1 / open_gop=0 / weightp=2 / keyint=250 / keyint_min=126 / scenecut=0 / intra_refresh=0 / rc_lookahead=250 / rc=crf / mbtree=1 / crf=20.0 / qcomp=0.50 / qpmin=6 / qpmax=51 / qpstep=4 / vbv_maxrate=20000 / vbv_bufsize=25000 / crf_max=0.0 / nal_hrd=vbr / filler=0 / ip_ratio=1.40 / aq=1:0.80 Default : Yes Forced : No Audio #1 ID : 2 Format : E-AC-3 Format/Info : Enhanced AC-3 Commercial name : Dolby Digital Plus Codec ID : A_EAC3 Duration : 1 h 41 min Bit rate mode : Constant Bit rate : 128 kb/s Channel(s) : 2 channels Channel layout : L R Sampling rate : 48.0 kHz Frame rate : 31.250 FPS (1536 SPF) Compression mode : Lossy Stream size : 92.7 MiB (2%) Title : English Language : English Service kind : Complete Main Default : Yes Forced : No Audio #2 ID : 3 Format : E-AC-3 Format/Info : Enhanced AC-3 Commercial name : Dolby Digital Plus Codec ID : A_EAC3 Duration : 1 h 41 min Bit rate mode : Constant Bit rate : 128 kb/s Channel(s) : 2 channels Channel layout : L R Sampling rate : 48.0 kHz Frame rate : 31.250 FPS (1536 SPF) Compression mode : Lossy Stream size : 92.7 MiB (2%) Title : Mandarin Language : Chinese Service kind : Complete Main Default : No Forced : No Text #1 ID : 4 Format : UTF-8 Codec ID : S_TEXT/UTF8 Codec ID/Info : UTF-8 Plain Text Duration : 1 h 31 min Bit rate : 1 b/s Count of elements : 36 Stream size : 1.06 KiB (0%) Title : English [Forced] Language : English Default : No Forced : Yes Text #2 ID : 5 Format : UTF-8 Codec ID : S_TEXT/UTF8 Codec ID/Info : UTF-8 Plain Text Duration : 1 h 39 min Bit rate : 39 b/s Count of elements : 1049 Stream size : 28.9 KiB (0%) Title : English [Full] Language : English Default : No Forced : No Text #3 ID : 6 Format : UTF-8 Codec ID : S_TEXT/UTF8 Codec ID/Info : UTF-8 Plain Text Duration : 1 h 39 min Bit rate : 39 b/s Count of elements : 1050 Stream size : 28.9 KiB (0%) Title : Spanish [Full] Language : Spanish Default : No Forced : No Text #4 ID : 7 Format : UTF-8 Codec ID : S_TEXT/UTF8 Codec ID/Info : UTF-8 Plain Text Duration : 1 h 39 min Bit rate : 43 b/s Count of elements : 1050 Stream size : 31.5 KiB (0%) Title : German [Full] Language : German Default : No Forced : No Text #5 ID : 8 Format : UTF-8 Codec ID : S_TEXT/UTF8 Codec ID/Info : UTF-8 Plain Text Duration : 1 h 39 min Bit rate : 40 b/s Count of elements : 1050 Stream size : 29.2 KiB (0%) Title : Brazilian Portuguese [Full] Language : Portuguese Default : No Forced : No Text #6 ID : 9 Format : UTF-8 Codec ID : S_TEXT/UTF8 Codec ID/Info : UTF-8 Plain Text Duration : 1 h 39 min Bit rate : 39 b/s Count of elements : 1050 Stream size : 29.0 KiB (0%) Title : Indonesian [Full] Language : Indonesian Default : No Forced : No Text #7 ID : 10 Format : UTF-8 Codec ID : S_TEXT/UTF8 Codec ID/Info : UTF-8 Plain Text Duration : 1 h 39 min Bit rate : 43 b/s Count of elements : 1050 Stream size : 31.8 KiB (0%) Title : Vietnamese [Full] Language : Vietnamese Default : No Forced : No Text #8 ID : 11 Format : UTF-8 Codec ID : S_TEXT/UTF8 Codec ID/Info : UTF-8 Plain Text Duration : 1 h 39 min Bit rate : 86 b/s Count of elements : 1050 Stream size : 63.1 KiB (0%) Title : Thai [Full] Language : Thai Default : No Forced : No Text #9 ID : 12 Format : UTF-8 Codec ID : S_TEXT/UTF8 Codec ID/Info : UTF-8 Plain Text Duration : 1 h 39 min Bit rate : 38 b/s Count of elements : 1051 Stream size : 28.2 KiB (0%) Title : Korean [Full] Language : Korean Default : No Forced : No Text #10 ID : 13 Format : UTF-8 Codec ID : S_TEXT/UTF8 Codec ID/Info : UTF-8 Plain Text Duration : 1 h 40 min Bit rate : 36 b/s Count of elements : 1265 Stream size : 27.1 KiB (0%) Title : Chinese (Simplified) [SDH] Language : Chinese Default : No Forced : No Text #11 ID : 14 Format : UTF-8 Codec ID : S_TEXT/UTF8 Codec ID/Info : UTF-8 Plain Text Duration : 1 h 39 min Bit rate : 34 b/s Count of elements : 1104 Stream size : 24.8 KiB (0%) Title : Chinese (Traditional) [SDH] Language : Chinese Default : No Forced : No Text #12 ID : 15 Format : UTF-8 Codec ID : S_TEXT/UTF8 Codec ID/Info : UTF-8 Plain Text Duration : 1 h 39 min Bit rate : 37 b/s Count of elements : 890 Stream size : 27.1 KiB (0%) Title : Japanese [Full] Language : Japanese Default : No Forced : No

    [​IMG]
    [​IMG]
    [​IMG]
     
    vantri66, loctran999, sutu and 10 others like this.
  2. adm820

    adm820 Moderator Thành viên BQT

    Tham gia ngày:
    1/12/10
    Bài viết:
    6,220
    Đã được cảm ơn:
    138,901
    Giới tính:
    Nam
    Bộ phim được tải vè từ Netflix có sẵn sub việt

    Link tải

    Nhấn nút Cảm ơn (dưới chân bài) để thấy link!
     
  3. anvietcanh

    anvietcanh Active Member

    Tham gia ngày:
    1/7/09
    Bài viết:
    252
    Đã được cảm ơn:
    249
    serri này khá hay! xem 2 phần trên clip rồi, anh em mê võ thuật chắc khó bỏ qua dc
     
    phammanhhung65 and truongsonvu like this.

Chia sẻ trang này