[Hành Động] The island at the top of the world 1974.1080p.x264-ION10 - Hòn đảo trên nóc nhà thế giới

Thảo luận trong 'Fshare.vn' bắt đầu bởi HLIEU, 16/12/18.

  1. HLIEU

    HLIEU Well-Known Member

    Tham gia ngày:
    12/2/09
    Bài viết:
    323
    Đã được cảm ơn:
    14,329
    Điểm thành tích:
    113
    Giới tính:
    Nam
    Nghề nghiệp:
    Bác sị Y Khoa chuyên Nội khoa
    Nơi ở:
    Việt Nam
    Tiền:
    1,737 CR
    Hòn đảo trên nóc nhà thế giới: The island at the top of the world 1974.1080p.x264-ION10

    ( Donald Sinden, David Hartman, Jacques Marin ):

    4.65GB.-8.63GB

    [​IMG]
    [​IMG]


    Đây là một phim thuộc loại hành động,phiêu lưu, hấp dẫn từ đầu đến cuối qua tài diễn xuất của 3 tài tử của màn ảnh Mỹ làDonald Sinden, David Hartman, Jacques Marin


    Tại London vào năm 1907, Sir Anthony Ross vội vàng sắp xếp một chuyến thám hiểm đến Bắc Cực để tìm kiếm đứa con trai đã mất tích là Donald..
    Sir Anthony đi cùng một nhà khảo cổ là John Ivarsson và Thuyền trưởng Brieux một nhà phát minh,/ phi hành gia của chiếc phi thuyền Hyperion mà ông đã phát minh ra. Khi đến Bắc Cực, họ gặp Oomiak một người bạn Eskimocủa Donald, và lừa anh ta giúp họ tham gia tìm kiếm.
    Cuối cùng, đoàn thám hiểm trở thành (tạm thời) rời khỏi thuyền trưởng Brieux, và phát hiện ra một hòn đảo thám hiểm có tên Astragard, bị chiếm đóng bởi một nền văn minh bị mất của người Viking. Bọn người Viking bắt Sir Anthony và Ivarsson, nhưng Oomiak đã trốn thoát Họ bị kết tội chét bởi tên cuòng tìn nhiều quyền lưc là Godi.
    Ba người đàn ông được cứu thoát khỏi bị thiêu sống bởi một cô gái Freyja, người mà Donald đã yêu.. Họ trốn thoát, và được gia nhập lại bởi Oomiak và cuối cùng họ tìm thấy nghĩa địa cá voi, Ở đây họ được cứu nhờ gâp lại Thuyền trưởng Brieux, nhưng họ vẫn đang bị theo đuổi sát bởi Godi .

    Cuối cùng, Godi bị giết bởi vụ nổ khi tên này bắn một mũi tên lửa vào Hyperion, nhưng những người Viking sẽ không để cho đoàn thám hiểm trở về thế giới của họ trừ khi 1 người ở lại làm con tin. Ivarsson tuy nhiên, sẵn sàng tình nguyện ở lại, bởi vì đây là một cơ hội để sống cùng lịch sử. Sir Anthony, Donald, Freyja, Thuyền trưởng Brieux và Oomiak, được phép khởi hành trong hòa bình, hứa sẽ không nói gì với thế giới bên ngoài về hoàn đảo Astragard
    Ngoài hình ảnh đẹp, rõ ,cốt truyện thật gây cấn, rất xứng đáng lưu mãi trong số các phim kinh điển hay nhất mọi thời đại; chắc rồi đây bạn sẽ còn muốn xem xem lại nhiều lần nữa.

    Sub Việt được chỉnh lại toàn bộ bởi HLIEU được tích hợp luôn vào phim không để riêng. Dù sao, file srt này không phải hard code nên bạn có thể tách dễ dàng bằng cách dùng MkvextractGUI.exe trong MKV toolnix.
    Hy vọng được các bạn mê say bộ phim hấp dẫn này sẽ cho nhiều comment(mỗi ngày /chỉ cần 1 người) và bài khỏi bị trôi đi đâu mất tiêu, giúp các bạn nào biết trể còn tìm ra được phim này. Nhớ là bạn like chỉ tải phim chưa đủ đâu, mà xin nhớ please comment giùm tác giả khi thấy phim nào quá hay để còn giúp bạn bè khác nữa có cơ hội xem được phim hay như mình

    [​IMG]
    IMDB 6.3/10
    trên 1992 người xem​

    [​IMG]



    Thể loại: Hành động,Phiêu lưuị

    Hãng phim Walt Disney

    Sản xuất năm 1974

    Đạo diễn Robert Stevenson

    Vai chính:

    · Donald Sinden - Ngài Sir Anthony Ross

    · David Hartman – Giáo sư Prof. Ivarsson

    · Jacques Marin – Thuyền trưởn Captain Brieux

    · Mako - Oomiak

    · David Gwillim - Donald Ross

    · Agneta Eckemyr – Freyja

    [​IMG]


    1)General 1080p

    Format : Matroska

    File size : 8.33 GiB

    Duration : 1 h 33 min

    Overall bit rate : 12.7 Mb/s

    Video

    Format : MPEG-4 Visual

    Bit rate : 12.4 Mb/s

    Width : 1 920 pixels

    Height : 1 080 pixels

    Display aspect ratio : 16:9

    Frame rate mode : Constant

    Frame rate : 23.976 FPS

    Stream size : 8.12 GiB (97%)

    2) General 720p

    File size : 4.65 GiB

    Duration : 1 h 33 min

    Overall bit rate : 7 102 kb/s

    Format : MPEG-4 Visual

    Format profile : Simple@L1

    Duration : 1 h 33 min

    Bit rate : 6 780 kb/s

    Width : 1 280 pixels

    Height : 720 pixels

    Display aspect ratio : 16:9

    Frame rate mode : Constant

    Frame rate : 23.976 FPS

    Stream size : 4.44 GiB (95%)

    3) 1080p-720pAudio

    Format : AC-3

    Format/Info : Audio Coding 3

    Codec ID : A_AC3

    Duration : 1 h 33 min

    Bit rate mode : Constant

    Bit rate : 320 kb/s

    Channel(s) : 6 channels

    Channel positions : Front: L C R, Side: L R, LFE

    Sampling rate : 48.0 kHz

    [​IMG]
    The island 1-2.jpg The island 3-4.jpg The island 5-6.jpg The island 7-8.jpg The island 9-10.jpg The island 11-12.jpg The island 13-14.jpg The island 15-16.jpg

    [​IMG]

    The island at the top of the world 1080p

    Nhấn nút Cảm ơn (dưới chân bài) để thấy link!
    Nhấn nút Cảm ơn (dưới chân bài) để thấy link!
     
    Chỉnh sửa cuối: 17/12/18
    #1 +1 CR
  2. tqkphong

    tqkphong Well-Known Member

    Tham gia ngày:
    27/11/09
    Bài viết:
    503
    Đã được cảm ơn:
    769
    Điểm thành tích:
    93
    Tiền:
    1,207 CR
    Link không tồn tại. Nhờ chú Hoàng up lại. Cảm ơn chú nhiều.
     
  3. HLIEU

    HLIEU Well-Known Member

    Tham gia ngày:
    12/2/09
    Bài viết:
    323
    Đã được cảm ơn:
    14,329
    Điểm thành tích:
    113
    Giới tính:
    Nam
    Nghề nghiệp:
    Bác sị Y Khoa chuyên Nội khoa
    Nơi ở:
    Việt Nam
    Tiền:
    1,737 CR
    Sorry, đã cập nhật link mới cho các bạn
    HLIEU
     
    #3 +1 CR
  4. quysauruoua409

    quysauruoua409 New Member

    Tham gia ngày:
    29/5/13
    Bài viết:
    11
    Đã được cảm ơn:
    5
    Điểm thành tích:
    3
    Giới tính:
    Nam
    Tiền:
    11 CR
    like
     
    hiep_nguyen300461 cảm ơn bài này.
  5. dthhh

    dthhh New Member

    Tham gia ngày:
    19/1/11
    Bài viết:
    26
    Đã được cảm ơn:
    19
    Điểm thành tích:
    3
    Tiền:
    924 CR
    Cảm ơn bác nhiều
     
    #5 +1 CR
    hiep_nguyen300461 cảm ơn bài này.
  6. Giaonhu1973

    Giaonhu1973 Member

    Tham gia ngày:
    27/6/13
    Bài viết:
    16
    Đã được cảm ơn:
    37
    Điểm thành tích:
    18
    Tiền:
    74 CR
    Phim hay, gây cấn đáng xem
    giaonhu1973
     
    hiep_nguyen300461 cảm ơn bài này.

Chia sẻ trang này