[ Hành động] Tội pham] Hắc Quyèn: Fatal contact 2006 720p.1080p BluRay.x264.BiRD

Thảo luận trong 'Fshare.vn' bắt đầu bởi HLIEU, 1/7/19.

  1. HLIEU

    HLIEU Well-Known Member

    Tham gia ngày:
    12/2/09
    Bài viết:
    323
    Đã được cảm ơn:
    14,367
    Điểm thành tích:
    113
    Giới tính:
    Nam
    Nghề nghiệp:
    Bác sị Y Khoa chuyên Nội khoa
    Nơi ở:
    Việt Nam
    Tiền:
    1,737 CR
    Hác Quyèn:Fatal Contact 2006 720p1080p.BluRay.x264.BiRD
    (Ngô Kính,Trương Triệu Huy,Phó Dĩnh, Dương Ái Cẩn)=(9.41GB,5.17GB)


    [​IMG]

    Fatal contact 1x.jpg


    Đây là một phim thuộc loại hành động, tội phạm hấp dẫn từ đầu đến cuối qua tài diễn xuất của 4 tài tử HK Ngô Kính, Tương Triệu Huy, Phó Dĩnh, Dương Ái Cẩm
    Một nhà vô địch quốc gia võ thuật trẻ của Trung Quốc, Cao Cương, đến Hồng Kông trong một hợp đồng ngắn với một nhóm nhạc kịch Trung Quốc. Một ông trùm cờ bạc nhỏ, Hoà, rất ấn tượng với Cao Cương đến nỗi anh ta muốn hắn trở thành chiến binh của mình trong thế giới quyền anh. Cần tiền, Cao Cương quyết định tham gia vào trận đấu quyền anh ngầm với bạn gái Tin.Họ cùng nhau kiểm soát các trận đấu. Kỹ năng chiến đấu của Cao Cương này càng cao khiến anh ta chiến thắng trên đấu trường, nhưng sau mỗi chiến thắng, anh ta lại hòa mình vào thế giời ngầm.Anh và bạn gái Tin kiếm nhiều tiên tích tụ đến 4 triêu không ngờ ban gái phản bội lén anh buộc anh giả vờ thua lảnh 1triệu hối hận phải tự vận.Anh không tin vào sự phản bội truy lùng giét bọn thế giới ngầm định giết tên Hòa thì bị cảnh sát bắn chết

    Ngoài hình ảnh đẹp, rõ ,cốt truyện thật gây cấn, rất xứng đáng lưu mãi trong số các phim kinh điển hay nhất mọi thời đại; chắc rồi đây bạn sẽ còn muốn xem lại nhiều lần nữa.
    Sub Việt đã được làm nhưng còn quá nhiều lỗi overlap ,dịch tên sai, chỉnh lại toàn bộ bởi HLIEU; được tích hợp luôn vào phim không để riêng. Dù sao, file srt này không phải hard code nên bạn có thể tách dễ dàng bằng cách dùng MkvextractGUI.exe trong MKV toolnix.
    Hy vọng được các bạn mê say bộ phim hấp dẫn này sẽ cho nhiều comment(mỗi ngày /chỉ cần 1 người) và bài khỏi bị trôi đi đâu mất tiêu, giúp các bạn nào biết trể còn tìm ra được phim này. Nhớ là bạn like, chỉ tải phim chưa đủ đâu, mà xin nhớ please comment giùm tác giả khi thấy phim nào quá hay để còn giúp bạn bè khác nữa có cơ hội xem được phim hay như mình.

    IMDB.jpg
    6.6/10
    [/SIZE][/FONT][/COLOR]
    trên 1595 người xem


    CODE.jpg
    a)General Video 1080p


    Format : Matroska


    Format version : Version 4


    File size : 9.40 GiB


    Duration : 1 h 42 min


    Overall bit rate : 13.1 Mb/s


    Width : 1 920 pixels


    Height : 1 080 pixels


    Display aspect ratio : 2.35:1


    Frame rate mode : Constant


    Frame rate : 23.976 (24000/1001) FPS


    Stream size : 9.17 GiB (98%)


    B)Video 720p


    File size : 5.41 GiB


    Duration : 1 h 42 min


    Overall bit rate : 7 221 kb/s


    Bit rate : 7 000 kb/s


    Width : 1 280 pixels


    Height : 720 pixels


    C)Audio


    Commercial name : Dolby Digital


    Codec ID : A_AC3


    Duration : 1 h 42 min


    Bit rate mode : Constant


    Bit rate : 320 kb/s


    Channel(s) : 6 channels


    Channel layout : L R C LFE Ls Rs


    Sampling rate : 48.0 kHz


    Frame rate : 31.250 FPS (1536 SPF)


    Bit depth : 16 bits


    Compression mode : Lossy


    Delay relative to video : -41 ms


    Stream size : 235 MiB (2%)


    D) Subtitle: Vietnamee




    [​IMG]

    Fatal contact 1-2.jpg Fatal contact 3-4.jpg Fatal contact 5-6.jpg Fatal contact 7-8.jpg
    Fatal contact 9-10.jpg Fatal contact 11-12.jpg
    Fatal contact 13-14.jpg Fatal contact 15-16.jpg

    [​IMG]


    Fatal contact 1080p

    Nhấn nút Cảm ơn (dưới chân bài) để thấy link!



    bản 720p

    Nhấn nút Cảm ơn (dưới chân bài) để thấy link!



    Đã có bản 720p phim này ở mục download fshare, bạn nào thích bản 720p cứ chọn tải link Fshare


    Danh sách các phim 1080p mà HLIEU đã pos



    HLIEU
     
    Chỉnh sửa cuối: 1/7/19
    #1 +1 CR
  2. dungtam25

    dungtam25 Well-Known Member

    Tham gia ngày:
    6/9/10
    Bài viết:
    2,812
    Đã được cảm ơn:
    705
    Điểm thành tích:
    113
    Giới tính:
    Nam
    Tiền:
    4,616 CR
    Cám ơn bác,mà sao hình lại là Jet Li vậy bác
     
    minhhoa450968 and phuongorchids like this.
  3. culacvang

    culacvang Well-Known Member

    Tham gia ngày:
    8/10/12
    Bài viết:
    1,787
    Đã được cảm ơn:
    232
    Điểm thành tích:
    63
    Tiền:
    2,219 CR
    fim này là Cận vệ trung nam hải mà
     
  4. HLIEU

    HLIEU Well-Known Member

    Tham gia ngày:
    12/2/09
    Bài viết:
    323
    Đã được cảm ơn:
    14,367
    Điểm thành tích:
    113
    Giới tính:
    Nam
    Nghề nghiệp:
    Bác sị Y Khoa chuyên Nội khoa
    Nơi ở:
    Việt Nam
    Tiền:
    1,737 CR
    Sorry , Bác đã nhầm với Người bao vệ từ bắc Kinh
    bác chỉnh lại hình ảnh trong phim Hắc Quyền
    HLIEU
    Vì chỉnh lại khó chữa hoàn hảo thiếu một ít chỗ xin lôi
     
    Chỉnh sửa cuối: 1/7/19
    #4 +1 CR
  5. phi_7932

    phi_7932 Member

    Tham gia ngày:
    18/11/15
    Bài viết:
    62
    Đã được cảm ơn:
    29
    Điểm thành tích:
    18
    Tiền:
    118 CR
    phim hay,thank bác.
     
    #5 +1 CR
    phuongorchids cảm ơn bài này.

Chia sẻ trang này