|Hành động|Tội phạm|Thế giới hoàn hảo: A perfect world 1993.1080p.BluRay.AC3.x264.CtrlHD

Thảo luận trong 'Fshare.vn' bắt đầu bởi HLIEU, 30/6/20.

  1. HLIEU

    HLIEU Well-Known Member

    Tham gia ngày:
    12/2/09
    Bài viết:
    349
    Đã được cảm ơn:
    17,493
    Giới tính:
    Nam
    Nghề nghiệp:
    Bác sị Y Khoa chuyên Nội khoa
    Nơi ở:
    Việt Nam
    Thế giới hoàn hảo: A perfect world 1993.1080p720p.BluRay.AC3.x264.CtrlHD_BluRay_AC3_x264_CtrlHD
    (Kevin Costner,Clint Eastwood,T.J.Lowther)(6.18GB-10.1GB]

    [​IMG]

    [​IMG]
    Đây là một phim hành động, tội phạm, tràn đầy tình cảm của đạo diễn Clint Eastwood với diễn xuất của tài tử trứ danh Ketvin Costner và cậ bé L.J.Lowther. Phim thâu được 135,1tiệu USD trong khi chỉ chỉ 30 triệu USD
    [​IMG]

    Năm 1963 Texas, người bị kết án Robert "Butch" Haynes (Kevin Costner) và Terry Pugh (Keith Szarabajka) trốn thoát khỏi nhà tù bang Huntsville. Chạy trốn, Pugh tình cờ vào một ngôi nhà nơi Phillip Perry (T.J. Lowther) tám tuổi sống với mẹ Cần một con tin để giúp họ trốn thoát, Butch tóm lấy cậu bé, người ngoan ngoãn đi theo họ. Cuộc hành trình của bộ ba sớm chạm đến u khi Butch giết Terry, sau nỗ lực làm hại đứa trẻ sau này. Với đồng đội của mình tránh đường, người bị kết án và nạn nhân trẻ tuổi của anh ta đi đến đường cao tốc Texas trong một nỗ lực để chạy trốn khỏi cảnh sát truy đuổi.

    Trong khi đó, Texas Ranger Red Garnett (Clint Eastwood), cưỡi trên chiếc xe thùng kéo theo xe dẫn đầu. Với nhà tội phạm học Sally Gerber (Laura Dern) và tay súng sắc bén FBI Bobby Lee (Bradley Whitford) theo sau,
    Red quyết tâm phục hồi tên tội phạm và con tin trước khi chúng vượt qua biên giới Texas.ghiệt. Nhiều năm sau, Red đã nhận ra rằng bản án khắc nghiệt hơn chỉ khuyến khích chính cuộc đời tội phạm mà anh lo sợ sẽ xảy ra. Bây giờ, Red đang hy vọng rằng nếu anh ta có thể mang Butch còn sống, anh ta có thể chuộc lại lỗi lầm trong quá khứ.
    Butch dần dần thấy mình bị lôi cuốn vào việc mang đến cho Phillip kiểu hiện diện của người cha mà bản thân anh chưa bao giờ có. Butch và Phillip cố gắng đến New Mexico, nhưng phát hiện ra rằng đường cao tốc họ đang lái xe đang dang dở. Trong khi ngủ trong xe của họ trên một cánh đồng ngô, họ gặp Mack, một nông dân và gia đình anh ta - Lottie, vợ anh ta và cháu trai của anh ta ở Cleveland. Mack thường xuyên lạm dụng Cleveland( cháu trai), mà Butch cố gắng chịu đựng, nhưng khi Mack nhận ra anh ta là ai thì anh ta đã dừng lại. Anh ta đánh Mack và lên kế hoạch giết anh ta, nhưng Phillip nhặt súng của Butch và bắn Butch vào bụng. Phillip đi ra khỏi nhà, thả súng xuống giếng, ném chìa khóa xe và chạy qua một đồng cỏ. Butch theo sau, và nghỉ ngơi tại cây Phillip đã leo lên. Trong đoạn hội thoại sau đây, Phillip xin lỗi vì đã bắn Butch, người nói với anh rằng anh ta đã làm đúng. Đội của Red bao quanh cánh đồng nơi Phillip và Butch đang ở, và Butch sớm gửi cậu bé đến cho mẹ mình, người đã đến bằng trực thăng và Butch đã hứa sẽ đưa Phillip đi lừa hoặc điều trị hàng năm. Không muốn rời khỏi Butch đã bị thương, cậu bé chạy lại và ôm chầm lấy anh - một cử chỉ, cùng với kiến thức về tính cách và lý lịch của Butch, thuyết phục Red rằng anh có thể giải quyết tình huống một cách hòa bình. Kế hoạch của anh ta bị cản trở, tuy nhiên, khi Bobby Lee, nhầm một trong những cử chỉ của Butch có nghĩa là anh ta sẽ rút súng, bắn vào ngực anh ta, giết chết anh ta. Động thái này khiến Red tức giận và thất vọng vì không thể cứu Butch và đưa anh ta sống sót. Red đấm Bobby Lee và Sally quỳ xuống háng anh ta trước khi bỏ đi. Phillip sau đó được đoàn tụ với mẹ và họ bay đi trong một chiếc trực thăng trong khi Phillip buồn bã nhìn qua cửa sổ vào cơ thể vô hồn của Butch trên đồng cỏ

    [​IMG]
    7.6/10
    trên 71493 người

    [​IMG]
    Diễn viên chình
    • Kevin Costner vai Robert "Butch" Haynes
    • Clint Eastwood vai CS trưởng "Red" Garnett
    • Laura Dern vais Sally Gerber
    • T.J. Lowthe vai Philip "Buzz" Perry
    • Keith Szarabajka vai Terry Pugh
    • Leo Burmester as Tom Adler
    • Bruce McGill as Paul Saunders

    Đạo diễn Clint Eastwood
    Viết bởi John Lee Hancock
    Phân phối bởi hãng phim Warner Bros.

    Ngân quỷ $30 million
    Doanh thu $135.1 million

    [​IMG]

    A)General 1080p

    Format : MPEG-4

    File size : 10.1 GiB

    Duration : 2 h 18 min

    Overall bit rate : 10.5 Mb/s

    Encoded date : UTC 1970-01-01 00:00:00

    Tagged date : UTC 1970-01-01 00:00:00

    Writing application : Lavf53.24.2

    A)Video 1080p

    Format : AVC

    Format/Info : Advanced Video Codec

    Duration : 2 h 18 min

    Bit rate : 10 000 kb/s

    Width : 1 920 pixels

    Height : 1 080 pixels

    Display aspect ratio : 16:9

    Frame rate mode : Constant

    Frame rate : 23.976 (24000/1001) FPS

    Bit depth : 8 bit

    B) Video720p

    File size : 6.19 GiB

    Duration : 2 h 18 min

    Overall bit rate : 6 412 kb/s

    Format : AVC

    Format/Info : Advanced Video Codec

    Duration : 2 h 18 min

    Bit rate : 6 000 kb/s

    Width : 1 280 pixels

    Height : 720 pixels

    Display aspect ratio : 16:9

    Frame rate mode : Constant

    Frame rate : 23.976 (24000/1001) FPS

    Chroma subsampling : 4:2:0

    Bit depth : 8 bits

    Scan type : Progressive

    Bits/(Pixel*Frame) : 0.272

    Stream size : 5.88 GiB (95%)

    C) Audio

    Format : AC-3

    Codec ID : ac-3

    Bit rate : 320 kb/s

    Channel(s) : 6 channels

    Channel layout : L R C LFE Ls Rs

    Sampling rate : 48.0 kHz

    Frame rate : 31.250 FPS (1536 SPF)

    Compression mode : Lossy

    Stream size : 317 MiB (3%)

    Language : English

    Service kind : Complete Main

    Default : Yes


    [​IMG]
    [​IMG]
    [​IMG]
    [​IMG]
    [​IMG]
    [​IMG]
    [​IMG]
    [​IMG]
    [​IMG]

    [​IMG]
    [​IMG]
    [​IMG]
    [​IMG]

    [​IMG]

    A Perfect world 1080p

    Nhấn nút Cảm ơn (dưới chân bài) để thấy link!


    bản 720p

    Nhấn nút Cảm ơn (dưới chân bài) để thấy link!


    Đã có bản 720p phim này ở mục download fshare, bạn nào thích bản 720p cứ chọn tải từ link Fshare


    Danh sách các phim 1080p mà HLIEU đã post
    HLIEU

     
  2. dungtam25

    dungtam25 Well-Known Member

    Tham gia ngày:
    6/9/10
    Bài viết:
    2,939
    Đã được cảm ơn:
    808
    Giới tính:
    Nam
    Cám ơn bác Hiếu,thấy tài tử và đạo diễn là thấy phim chất lượng rồi
     

Chia sẻ trang này