[Hành động] Unstoppable 2018 1080p Blu-ray REMUX AVC TrueHD 5.1 ~ Găng tơ tái xuất (Vietsub)

Thảo luận trong 'Bluray Remux' bắt đầu bởi adm820, 3/4/20.

  1. adm820

    adm820 Moderator Thành viên BQT

    Tham gia ngày:
    1/12/10
    Bài viết:
    7,739
    Đã được cảm ơn:
    180,760
    Giới tính:
    Nam
    [​IMG]

    upload_2020-4-3_10-33-56.png

    Mã:
    General
    
    
    	

    Unique ID : 26973859573534905608700757136340431750 (0x144AF9F47CDBF3FC3360CFBC88843386)

    Complete name : C:\Users\Administrator\Desktop\Unstoppable 2018 1080p Blu-ray REMUX AVC TrueHD 5.1.mkv Format : Matroska Format version : Version 4 File size : 16.9 GiB Duration : 1 h 56 min Overall bit rate mode : Variable Overall bit rate : 20.8 Mb/s Encoded date : UTC 2020-04-03 02:54:39 Writing application : mkvmerge v44.0.0 ('Domino') 64-bit Writing library : libebml v1.3.10 + libmatroska v1.5.2 Video ID : 1 Format : AVC Format/Info : Advanced Video Codec Format profile : High@L4.1 Format settings : CABAC / 4 Ref Frames Format settings, CABAC : Yes Format settings, Reference fra : 4 frames Codec ID : V_MPEG4/ISO/AVC Duration : 1 h 56 min Bit rate mode : Variable Bit rate : 19.0 Mb/s Maximum bit rate : 36.0 Mb/s Width : 1 920 pixels Height : 1 080 pixels Display aspect ratio : 16:9 Frame rate mode : Constant Frame rate : 23.976 (24000/1001) FPS Color space : YUV Chroma subsampling : 4:2:0 Bit depth : 8 bits Scan type : Progressive Bits/(Pixel*Frame) : 0.381 Stream size : 15.4 GiB (91%) Language : Japanese Default : Yes Forced : No Audio #1 ID : 2 Format : MLP FBA Format/Info : Meridian Lossless Packing FBA Commercial name : Dolby TrueHD Codec ID : A_TRUEHD Duration : 1 h 56 min Bit rate mode : Variable Bit rate : 1 025 kb/s Maximum bit rate : 2 562 kb/s Channel(s) : 6 channels Channel layout : L R C LFE Ls Rs Sampling rate : 48.0 kHz Frame rate : 1 200.000 FPS (40 SPF) Compression mode : Lossless Stream size : 851 MiB (5%) Language : Korean Default : Yes Forced : No Audio #2 ID : 3 Format : AC-3 Format/Info : Audio Coding 3 Commercial name : Dolby Digital Codec ID : A_AC3 Duration : 1 h 56 min Bit rate mode : Constant Bit rate : 640 kb/s Channel(s) : 6 channels Channel layout : L R C LFE Ls Rs Sampling rate : 48.0 kHz Frame rate : 31.250 FPS (1536 SPF) Compression mode : Lossy Stream size : 531 MiB (3%) Language : Korean Service kind : Complete Main Default : No Forced : No Text #1 ID : 4 Format : PGS Muxing mode : zlib Codec ID : S_HDMV/PGS Codec ID/Info : Picture based subtitle format used on BDs/HD-DVDs Duration : 1 h 52 min Bit rate : 154 kb/s Count of elements : 5204 Stream size : 124 MiB (1%) Language : Japanese Default : No Forced : No Text #2 ID : 5 Format : PGS Muxing mode : zlib Codec ID : S_HDMV/PGS Codec ID/Info : Picture based subtitle format used on BDs/HD-DVDs Duration : 1 h 53 min Bit rate : 31.5 kb/s Count of elements : 2678 Stream size : 25.5 MiB (0%) Language : English Default : No Forced : No Text #3 ID : 6 Format : PGS Muxing mode : zlib Codec ID : S_HDMV/PGS Codec ID/Info : Picture based subtitle format used on BDs/HD-DVDs Duration : 1 h 53 min Bit rate : 42.0 kb/s Count of elements : 3324 Stream size : 34.0 MiB (0%) Language : Vietnamese Default : Yes Forced : No Text #4 ID : 7 Format : PGS Muxing mode : zlib Codec ID : S_HDMV/PGS Codec ID/Info : Picture based subtitle format used on BDs/HD-DVDs Duration : 1 h 52 min Bit rate : 86.4 kb/s Count of elements : 5204 Stream size : 69.8 MiB (0%) Language : Japanese Default : No Forced : No

    [​IMG]

    [​IMG]

    [​IMG]

    [​IMG]

    [​IMG]

    [​IMG]


     
  2. maihaclau9

    maihaclau9 Member

    Tham gia ngày:
    27/2/12
    Bài viết:
    45
    Đã được cảm ơn:
    14
    Tìm mãi mới có bản đẹp này. Cám ơn bác
     

Chia sẻ trang này