[MULTI] [Hành động] Young and Dangerous - Người trong giang hồ (Lồng tiếng)

Thảo luận trong 'mHD, SD' bắt đầu bởi vucovu, 11/6/13.

  1. vucovu

    vucovu New Member

    Tham gia ngày:
    31/5/10
    Bài viết:
    12,517
    Đã được cảm ơn:
    5,446
    Young and Dangerous - Người trong giang hồ



    [​IMG]


    [​IMG]

     
    Chỉnh sửa cuối: 22/6/13
  2. vucovu

    vucovu New Member

    Tham gia ngày:
    31/5/10
    Bài viết:
    12,517
    Đã được cảm ơn:
    5,446
    Ðề: [Hành động] Young and Dangerous - Người trong giang hồ (Lồng tiếng)

    Young and Dangerous I 1996 DVDRip - Ngũ hổ tái xuất


    [​IMG]

    [​IMG]
    Mã:
    General
    Complete name                            : 1996 YoungAndDangerous-NguH?TáiXu?t.avi
    Format                                   : AVI
    Format/Info                              : Audio Video Interleave
    Format settings                          : rec
    File size                                : 983 MiB
    Duration                                 : 1h 39mn
    Overall bit rate                         : 1 379 Kbps
    
    Video
    ID                                       : 0
    Format                                   : MPEG-4 Visual
    Format profile                           : Advanced Simple@L5
    Format settings, BVOP                    : 2
    Format settings, QPel                    : No
    Format settings, GMC                     : No warppoints
    Format settings, Matrix                  : Default (H.263)
    Muxing mode                              : Packed bitstream
    Codec ID                                 : XVID
    Codec ID/Hint                            : XviD
    Duration                                 : 1h 39mn
    Bit rate                                 : 1 245 Kbps
    Width                                    : 720 pixels
    Height                                   : 480 pixels
    Display aspect ratio                     : 3:2
    Frame rate                               : 29.970 fps
    Standard                                 : NTSC
    Color space                              : YUV
    Chroma subsampling                       : 4:2:0
    Bit depth                                : 8 bits
    Scan type                                : Progressive
    Compression mode                         : Lossy
    Bits/(Pixel*Frame)                       : 0.120
    Stream size                              : 887 MiB (90%)
    Writing library                          : XviD 1.0.1 (UTC 2004-06-05)
    
    Audio
    ID                                       : 1
    Format                                   : MPEG Audio
    Format version                           : Version 1
    Format profile                           : Layer 3
    Codec ID                                 : 55
    Codec ID/Hint                            : MP3
    Duration                                 : 1h 39mn
    Bit rate mode                            : Constant
    Bit rate                                 : 128 Kbps
    Channel(s)                               : 2 channels
    Sampling rate                            : 44.1 KHz
    Compression mode                         : Lossy
    Delay relative to video                  : 25ms
    Stream size                              : 91.3 MiB (9%)
    Alignment                                : Split accross interleaves
    Interleave, duration                     : 2502 ms (75.00 video frames)
    
    
     
    Chỉnh sửa cuối: 13/6/13
  3. vucovu

    vucovu New Member

    Tham gia ngày:
    31/5/10
    Bài viết:
    12,517
    Đã được cảm ơn:
    5,446
    Ðề: [Hành động] Young and Dangerous - Người trong giang hồ (Lồng tiếng)

    Young and Dangerous 2 1996 DVDRip - Mãnh long quá giang


    [​IMG]



    [​IMG]
    Mã:
    General
    Complete name                            : Ngu?i trong giang h? - YoungAndDangerous2-MãnhLongQuáGiang.mpg
    Format                                   : MPEG-PS
    File size                                : 1.02 GiB
    Duration                                 : 1h 44mn
    Overall bit rate                         : 1 392 Kbps
    
    Video
    ID                                       : 224 (0xE0)
    Format                                   : MPEG Video
    Format version                           : Version 1
    Format settings, BVOP                    : Yes
    Format settings, Matrix                  : Default
    Duration                                 : 1h 44mn
    Bit rate                                 : 1 130 Kbps
    Width                                    : 352 pixels
    Height                                   : 240 pixels
    Display aspect ratio                     : 4:3
    Frame rate                               : 29.970 fps
    Standard                                 : NTSC
    Color space                              : YUV
    Bit depth                                : 8 bits
    Scan type                                : Progressive
    Compression mode                         : Lossy
    Bits/(Pixel*Frame)                       : 0.446
    Stream size                              : 855 MiB (82%)
    
    Audio
    ID                                       : 192 (0xC0)
    Format                                   : MPEG Audio
    Format version                           : Version 1
    Format profile                           : Layer 2
    Duration                                 : 1h 44mn
    Bit rate mode                            : Constant
    Bit rate                                 : 224 Kbps
    Channel(s)                               : 2 channels
    Sampling rate                            : 44.1 KHz
    Compression mode                         : Lossy
    Stream size                              : 168 MiB (16%)
    
    
     
    Chỉnh sửa cuối: 15/6/13
  4. vucovu

    vucovu New Member

    Tham gia ngày:
    31/5/10
    Bài viết:
    12,517
    Đã được cảm ơn:
    5,446
    Ðề: [Hành động] Young and Dangerous - Người trong giang hồ (Lồng tiếng)

    Young And Dangerous 3 1996 DVDRip - Một tay lấp trời



    [​IMG]


    [​IMG]

    [​IMG]
    Mã:
    General
    Complete name                            : [1996]YoungAndDangerous3-M?tTayL?pTr?i.avi
    Format                                   : AVI
    Format/Info                              : Audio Video Interleave
    Format settings                          : rec
    File size                                : 836 MiB
    Duration                                 : 1h 37mn
    Overall bit rate                         : 1 203 Kbps
    
    Video
    ID                                       : 0
    Format                                   : MPEG-4 Visual
    Format profile                           : Advanced Simple@L5
    Format settings, BVOP                    : 3
    Format settings, QPel                    : No
    Format settings, GMC                     : No warppoints
    Format settings, Matrix                  : Default (H.263)
    Muxing mode                              : Packed bitstream
    Codec ID                                 : XVID
    Codec ID/Hint                            : XviD
    Duration                                 : 1h 37mn
    Bit rate                                 : 1 069 Kbps
    Width                                    : 720 pixels
    Height                                   : 480 pixels
    Display aspect ratio                     : 3:2
    Frame rate                               : 29.970 fps
    Standard                                 : NTSC
    Color space                              : YUV
    Chroma subsampling                       : 4:2:0
    Bit depth                                : 8 bits
    Scan type                                : Progressive
    Compression mode                         : Lossy
    Bits/(Pixel*Frame)                       : 0.103
    Stream size                              : 743 MiB (89%)
    Writing library                          : XviD 1.0.1 (UTC 2004-06-05)
    
    Audio
    ID                                       : 1
    Format                                   : MPEG Audio
    Format version                           : Version 1
    Format profile                           : Layer 3
    Codec ID                                 : 55
    Codec ID/Hint                            : MP3
    Duration                                 : 1h 37mn
    Bit rate mode                            : Constant
    Bit rate                                 : 128 Kbps
    Channel(s)                               : 2 channels
    Sampling rate                            : 44.1 KHz
    Compression mode                         : Lossy
    Delay relative to video                  : 19ms
    Stream size                              : 89.0 MiB (11%)
    Alignment                                : Split accross interleaves
    Interleave, duration                     : 2502 ms (74.99 video frames)
    


    Tất tần tật về Emmanuelle
    Tất tần tật Emmanuelle --
     
    Chỉnh sửa cuối: 17/6/13
  5. vucovu

    vucovu New Member

    Tham gia ngày:
    31/5/10
    Bài viết:
    12,517
    Đã được cảm ơn:
    5,446
    Ðề: [Hành động] Young and Dangerous - Người trong giang hồ (Lồng tiếng)

    Young And Dangerous 4 1997 DVDRip - Vô địch thiên hạ



    [​IMG]


    [​IMG]

    [​IMG]
    Mã:
    General
    Complete name                            : [1997]YoungAndDangerous4-VôÐ?chThiênH?.avi
    Format                                   : AVI
    Format/Info                              : Audio Video Interleave
    Format settings                          : rec
    File size                                : 1.14 GiB
    Duration                                 : 1h 44mn
    Overall bit rate                         : 1 563 Kbps
    
    Video
    ID                                       : 0
    Format                                   : MPEG-4 Visual
    Format profile                           : Advanced Simple@L5
    Format settings, BVOP                    : 2
    Format settings, QPel                    : No
    Format settings, GMC                     : No warppoints
    Format settings, Matrix                  : Default (H.263)
    Muxing mode                              : Packed bitstream
    Codec ID                                 : XVID
    Codec ID/Hint                            : XviD
    Duration                                 : 1h 44mn
    Bit rate                                 : 1 429 Kbps
    Width                                    : 720 pixels
    Height                                   : 480 pixels
    Display aspect ratio                     : 3:2
    Frame rate                               : 29.970 fps
    Standard                                 : NTSC
    Color space                              : YUV
    Chroma subsampling                       : 4:2:0
    Bit depth                                : 8 bits
    Scan type                                : Progressive
    Compression mode                         : Lossy
    Bits/(Pixel*Frame)                       : 0.138
    Stream size                              : 1.05 GiB (91%)
    Writing library                          : XviD 1.0.1 (UTC 2004-06-05)
    
    Audio
    ID                                       : 1
    Format                                   : MPEG Audio
    Format version                           : Version 1
    Format profile                           : Layer 3
    Codec ID                                 : 55
    Codec ID/Hint                            : MP3
    Duration                                 : 1h 44mn
    Bit rate mode                            : Constant
    Bit rate                                 : 128 Kbps
    Channel(s)                               : 2 channels
    Sampling rate                            : 44.1 KHz
    Compression mode                         : Lossy
    Delay relative to video                  : 4ms
    Stream size                              : 96.0 MiB (8%)
    Alignment                                : Split accross interleaves
    Interleave, duration                     : 2502 ms (74.98 video frames)
    
    
    


    Tất tần tật về Emmanuelle
    Tất tần tật Emmanuelle --
     
    Chỉnh sửa cuối: 18/6/13
  6. vucovu

    vucovu New Member

    Tham gia ngày:
    31/5/10
    Bài viết:
    12,517
    Đã được cảm ơn:
    5,446
    Ðề: [Hành động] Young and Dangerous - Người trong giang hồ (Lồng tiếng)

    Young And Dangerous 5 1998 DVDRip - Long tranh hổ đấu



    [​IMG]


    [​IMG]
    [​IMG]
    Mã:
    General
    Complete name                            : [1998]YoungAndDangerous5-LongTranhH?Ð?u.avi
    Format                                   : AVI
    Format/Info                              : Audio Video Interleave
    Format settings                          : rec
    File size                                : 929 MiB
    Duration                                 : 1h 53mn
    Overall bit rate                         : 1 144 Kbps
    
    Video
    ID                                       : 0
    Format                                   : MPEG-4 Visual
    Format profile                           : Advanced Simple@L5
    Format settings, BVOP                    : 3
    Format settings, QPel                    : No
    Format settings, GMC                     : No warppoints
    Format settings, Matrix                  : Default (H.263)
    Muxing mode                              : Packed bitstream
    Codec ID                                 : XVID
    Codec ID/Hint                            : XviD
    Duration                                 : 1h 53mn
    Bit rate                                 : 1 009 Kbps
    Width                                    : 720 pixels
    Height                                   : 480 pixels
    Display aspect ratio                     : 3:2
    Frame rate                               : 29.970 fps
    Standard                                 : NTSC
    Color space                              : YUV
    Chroma subsampling                       : 4:2:0
    Bit depth                                : 8 bits
    Scan type                                : Progressive
    Compression mode                         : Lossy
    Bits/(Pixel*Frame)                       : 0.097
    Stream size                              : 820 MiB (88%)
    Writing library                          : XviD 1.0.1 (UTC 2004-06-05)
    
    Audio
    ID                                       : 1
    Format                                   : MPEG Audio
    Format version                           : Version 1
    Format profile                           : Layer 3
    Codec ID                                 : 55
    Codec ID/Hint                            : MP3
    Duration                                 : 1h 53mn
    Bit rate mode                            : Constant
    Bit rate                                 : 128 Kbps
    Channel(s)                               : 2 channels
    Sampling rate                            : 44.1 KHz
    Compression mode                         : Lossy
    Delay relative to video                  : 19ms
    Stream size                              : 104 MiB (11%)
    Alignment                                : Split accross interleaves
    Interleave, duration                     : 2502 ms (74.98 video frames)
    
    


    Tất tần tật về Emmanuelle
    Tất tần tật Emmanuelle --
     
  7. okai2

    okai2 Well-Known Member

    Tham gia ngày:
    21/6/10
    Bài viết:
    445
    Đã được cảm ơn:
    251
    Ðề: [Hành động] Young and Dangerous - Người trong giang hồ (Lồng tiếng)

    Cám ơn series này cũa bạn.
     
  8. vucovu

    vucovu New Member

    Tham gia ngày:
    31/5/10
    Bài viết:
    12,517
    Đã được cảm ơn:
    5,446
    Ðề: [Hành động] Young and Dangerous - Người trong giang hồ (Lồng tiếng)

    Update Folder link download trọn bộ 10 tập.
     
  9. phuongorchids

    phuongorchids Active Member

    Tham gia ngày:
    30/3/09
    Bài viết:
    654
    Đã được cảm ơn:
    151
    Ðề: [Hành động] Young and Dangerous - Người trong giang hồ (Lồng tiếng)

    Mấy ngày nay mình tìm hoài mà không thấy , ai ngờ bác lại gửi ở đây . Vì đây là phim lẻ sao bác không gửi bên box Fshare - non HD thì sẻ có nhiều người ủng hộ hơn . Thanks bác nhiều.............
     
  10. huynhthoaianh

    huynhthoaianh New Member

    Tham gia ngày:
    10/9/10
    Bài viết:
    148
    Đã được cảm ơn:
    2
    Nghề nghiệp:
    Sinh Viên Aptech
    Nơi ở:
    Q5 Tp Hcm
    Ðề: [Hành động] Young and Dangerous - Người trong giang hồ (Lồng tiếng)

    vừa xem xong film Saving General Yang,tìm lại film này coi lại :D
     
  11. yeuemmai231989

    yeuemmai231989 New Member

    Tham gia ngày:
    3/8/10
    Bài viết:
    99
    Đã được cảm ơn:
    1
    Nghề nghiệp:
    IT
    Nơi ở:
    Việt Nam
    Ðề: [Hành động] Young and Dangerous - Người trong giang hồ (Lồng tiếng)

    Bác ơi.em nhớ phim này có 12 phần tất cả mà.bác có 2 phần còn lại không thì up lên nốt đi.thanks bác thớt nhiều lắm
     
  12. hulkeuro

    hulkeuro Active Member

    Tham gia ngày:
    27/8/11
    Bài viết:
    598
    Đã được cảm ơn:
    62
    Ðề: [Hành động] Young and Dangerous - Người trong giang hồ (Lồng tiếng)

    uhm mình cũng tìm trên mang thấy để là 12 phần. ko biết fim này có bao nhiêu fần tất cả.
    nếu có 2 phần còn lại mong chủ rạp up lên dùm. tks !
    vừa tìm đc cái này. 1 ít thông tin như sau :D
    => chính xác fim có 12 fần :D
    => rất mong bác chủ rạp tìm và up hộ để những ae k có điều kiện tìm cùng thưởng thức trọn bộ này. 1 bộ về chủ đề XHĐ rất thành công và nổi tiếng của HK.
    Nguồn: FreeHD.vn
     

Chia sẻ trang này