[Hành động] Young and Dangerous The Prequel 1998 1080p NF WEB-DL DDP2.0 ~ Thiếu niên Hạo Nam (Viets

Thảo luận trong 'WEB-DL, HDTV' bắt đầu bởi adm820, 31/12/19.

Tags
  1. adm820

    adm820 Moderator Thành viên BQT

    Tham gia ngày:
    1/12/10
    Bài viết:
    8,055
    Đã được cảm ơn:
    189,359
    Giới tính:
    Nam
    [​IMG]


    upload_2019-12-31_14-47-12.png

    Mã:
    General
    Unique ID                   : 99212488384159818017789598399458114108 (0x4AA3A15655D7760D78C3ACB40ACEFA3C)
    
    
    	

    Complete name : C:\Users\Administrator\Documents\Young.and.Dangerous.The.Prequel.1998.1080p.NF.WEB-DL.DDP2.0.x264-Ao\Young.and.Dangerous.The.Prequel.1998.1080p.NF.WEB-DL.DDP2.0.x264-Ao.mkv

    Format : Matroska Format version : Version 4 File size : 6.22 GiB Duration : 1 h 55 min Overall bit rate mode : Variable Overall bit rate : 7 727 kb/s Encoded date : UTC 2001-01-01 00:00:00 Writing application : mkvmerge v34.0.0 ('Sight and Seen') 64-bit Writing library : libebml v1.3.9 + libmatroska v1.5.2 Video ID : 1 Format : AVC Format/Info : Advanced Video Codec Format profile : Main@L4 Format settings : CABAC / 3 Ref Frames Format settings, CABAC : Yes Format settings, Reference : 3 frames Codec ID : V_MPEG4/ISO/AVC Duration : 1 h 55 min Bit rate mode : Variable Bit rate : 7 500 kb/s Maximum bit rate : 11.2 Mb/s Width : 1 920 pixels Height : 1 080 pixels Display aspect ratio : 16:9 Frame rate mode : Constant Frame rate : 24.000 FPS Color space : YUV Chroma subsampling : 4:2:0 Bit depth : 8 bits Scan type : Progressive Bits/(Pixel*Frame) : 0.151 Stream size : 6.01 GiB (97%) Writing library : x264 core 148 r2715 7e75228 Encoding settings : cabac=1 / ref=3 / deblock=1:0:0 / analyse=0x1:0x111 / me=umh / subme=10 / psy=1 / psy_rd=1.00:0.00 / mixed_ref=1 / me_range=24 / chroma_me=1 / trellis=2 / 8x8dct=0 / cqm=0 / deadzone=21,11 / fast_pskip=1 / chroma_qp_offset=-2 / threads=8 / lookahead_threads=1 / sliced_threads=0 / nr=0 / decimate=1 / interlaced=0 / bluray_compat=0 / stitchable=1 / constrained_intra=0 / bframes=2 / b_pyramid=0 / b_adapt=2 / b_bias=0 / direct=3 / weightb=1 / open_gop=0 / weightp=2 / keyint=250 / keyint_min=24 / scenecut=0 / intra_refresh=0 / rc_lookahead=48 / rc=2pass / mbtree=1 / bitrate=7500 / ratetol=1.0 / qcomp=0.50 / qpmin=6 / qpmax=51 / qpstep=4 / cplxblur=20.0 / qblur=0.5 / vbv_maxrate=11250 / vbv_bufsize=15000 / nal_hrd=vbr / filler=0 / ip_ratio=1.40 / aq=1:1.00 Default : Yes Forced : No Audio #1 ID : 2 Format : E-AC-3 Format/Info : Enhanced AC-3 Commercial name : Dolby Digital Plus Codec ID : A_EAC3 Duration : 1 h 55 min Bit rate mode : Constant Bit rate : 128 kb/s Channel(s) : 2 channels Channel layout : L R Sampling rate : 48.0 kHz Frame rate : 31.250 FPS (1536 SPF) Compression mode : Lossy Stream size : 105 MiB (2%) Title : Mandarin Language : Chinese Service kind : Complete Main Default : Yes Forced : No Audio #2 ID : 3 Format : E-AC-3 Format/Info : Enhanced AC-3 Commercial name : Dolby Digital Plus Codec ID : A_EAC3 Duration : 1 h 55 min Bit rate mode : Constant Bit rate : 128 kb/s Channel(s) : 2 channels Channel layout : L R Sampling rate : 48.0 kHz Frame rate : 31.250 FPS (1536 SPF) Compression mode : Lossy Stream size : 105 MiB (2%) Title : Cantonese [Original] Language : Chinese Service kind : Complete Main Default : No Forced : No Text #1 ID : 4 Format : UTF-8 Codec ID : S_TEXT/UTF8 Codec ID/Info : UTF-8 Plain Text Duration : 1 h 52 min Bit rate : 53 b/s Count of elements : 1870 Stream size : 43.9 KiB (0%) Title : Traditional Chinese Language : Chinese Default : No Forced : No Text #2 ID : 5 Format : UTF-8 Codec ID : S_TEXT/UTF8 Codec ID/Info : UTF-8 Plain Text Duration : 1 h 53 min Bit rate : 60 b/s Count of elements : 1748 Stream size : 50.1 KiB (0%) Title : English Language : English Default : Yes Forced : No Text #3 ID : 6 Format : UTF-8 Codec ID : S_TEXT/UTF8 Codec ID/Info : UTF-8 Plain Text Duration : 1 h 54 min Bit rate : 81 b/s Count of elements : 1755 Stream size : 68.2 KiB (0%) Title : Vietnamese Language : Vietnamese Default : No Forced : No
    [​IMG] [​IMG] [​IMG] [​IMG]


    Bộ phim đc tải về từ Netflix có sẵn sub việt

    Link tải

    Nhấn nút Cảm ơn (dưới chân bài) để thấy link!


    Các phim khác từ Netflix

    http://www.hdvietnam.com/tags/adm820-nf/







    [Hành động] Young and Dangerous 1996 1080p NF WEB-DL AAC2.0 x264 ~ Người trong giang hồ
    [Hành động] Young and Dangerous 2 1996 1080p NF WEB-DL AAC2.0 x264 ~ Người trong giang hồ 2
    [ISO] Young and Dangerous 3 1996 Blu-ray 1080p AVC LPCM 2.0 ~ Người trong giang hồ 3
    [Hành động/Võ thuật] Young Dangerous 4 1997 1080p NF WEB-DL DDP2.0 x264 ~ Người Trong Giang Hồ 4
    [Hành động] Young and Dangerous 5 1998 1080p NF WEB-DL DDP2.0 x264 ~ Người trong giang hồ 5
    [Hành động] Young and Dangerous The Prequel 1998 1080p NF WEB-DL DDP2.0 ~ Thiếu niên Hạo Nam (Viets
     
  2. Mr.Phuc

    Mr.Phuc New Member

    Tham gia ngày:
    21/10/17
    Bài viết:
    12
    Đã được cảm ơn:
    4
    Giới tính:
    Nam
    Bác chủ có thể cho mình xin trọn bộ 6 phần chính từ Young and Dangerous 1 (1996) đến Young and Dangerous 6: Born to be King (2000) của Netflix được không ạ? Mình rất thích phim này nên cho mình xin để sưu tập ạ.
     
    duyanhsg cảm ơn bài này.
  3. hoangtuans

    hoangtuans Active Member

    Tham gia ngày:
    11/1/09
    Bài viết:
    149
    Đã được cảm ơn:
    35
    film nayf có sub việt thì quá hay ạ, bác có thì cho em xin film nhé
     
  4. nguyennguyen123456789

    nguyennguyen123456789 New Member

    Tham gia ngày:
    22/2/19
    Bài viết:
    18
    Đã được cảm ơn:
    21
    Giới tính:
    Nam
    Mr.Phuc and kiemddao like this.
  5. arron2

    arron2 Active Member

    Tham gia ngày:
    27/8/10
    Bài viết:
    318
    Đã được cảm ơn:
    231
    ông ca sĩ Lâm Chấn Khang cũng ráng làm MV thiếu niên với chả nhi đồng =)))
    bôi bác phim gốc vl =))))
     
  6. Mr.Phuc

    Mr.Phuc New Member

    Tham gia ngày:
    21/10/17
    Bài viết:
    12
    Đã được cảm ơn:
    4
    Giới tính:
    Nam
  7. nguyennguyen123456789

    nguyennguyen123456789 New Member

    Tham gia ngày:
    22/2/19
    Bài viết:
    18
    Đã được cảm ơn:
    21
    Giới tính:
    Nam
    ở đâu z bạn,
    edit: mình thấy rồi, mấy bữa thi cử xong mình sẽ làm,
     
    Chỉnh sửa cuối: 24/5/20
    Mr.Phuc cảm ơn bài này.
  8. Mr.Phuc

    Mr.Phuc New Member

    Tham gia ngày:
    21/10/17
    Bài viết:
    12
    Đã được cảm ơn:
    4
    Giới tính:
    Nam
    Chủ bài viết đã để link ở cuối bài đó bạn. Nếu bạn có sync thì dung lượng file Audio cũng tương đối thấp, mong bạn xuất file với chất lượng cao nhất để có giá trị lưu trữ nha. Cám ơn bạn nhiều. Mình xin phép trích lại nha @nguyennguyen123456789
    Các phần 1 2 4 5:
    http://www.hdvietnam.com/threads/ha...-dl-aac2-0-x264-nguoi-trong-giang-ho.1605609/
    http://www.hdvietnam.com/threads/ha...l-aac2-0-x264-nguoi-trong-giang-ho-2.1606175/
    http://www.hdvietnam.com/threads/ha...l-ddp2-0-x264-nguoi-trong-giang-ho-4.1605585/
    http://www.hdvietnam.com/threads/ha...l-ddp2-0-x264-nguoi-trong-giang-ho-5.1605588/
    Phần 3 và 6 do có phát hành Blu-ray nên đã được sync rồi, bạn có thể sưu tầm ở đây:
    http://www.hdvietnam.com/threads/xa...65-10bit-uslt-nguoi-trong-giang-ho-3.1568313/
    http://www.hdvietnam.com/threads/xa...it-mnhd-frds-uslt-sinh-ra-de-lam-vua.1556191/
     
  9. adm820

    adm820 Moderator Thành viên BQT

    Tham gia ngày:
    1/12/10
    Bài viết:
    8,055
    Đã được cảm ơn:
    189,359
    Giới tính:
    Nam
    mình nói ko với lồng tiếng , nên ko làm sync audio , mình chỉ sync thuyết minh.

    các bạn khác có thể lấy raw về tự sync .. :rolleyes::rolleyes::rolleyes::rolleyes:
     
    minhduc20101107 and Mr.Phuc like this.
  10. Mr.Phuc

    Mr.Phuc New Member

    Tham gia ngày:
    21/10/17
    Bài viết:
    12
    Đã được cảm ơn:
    4
    Giới tính:
    Nam
    Vâng, mình có biết về chủ trương của bác chủ. Rất cảm ơn bác @adm820 đã bỏ công kéo về để mọi người có trải nghiệm xem được trọn vẹn. Mình xem phim từ bác cũng nhiều mà chưa có dịp cảm ơn.
     
  11. adm820

    adm820 Moderator Thành viên BQT

    Tham gia ngày:
    1/12/10
    Bài viết:
    8,055
    Đã được cảm ơn:
    189,359
    Giới tính:
    Nam
    tiec là bộ này NF ko phát toàn cầu , vì vậy ko có sub việt
     
    Mr.Phuc cảm ơn bài này.
  12. nguyennguyen123456789

    nguyennguyen123456789 New Member

    Tham gia ngày:
    22/2/19
    Bài viết:
    18
    Đã được cảm ơn:
    21
    Giới tính:
    Nam
    Đây là link audio USLT của người trong giang hồ phần 1-2-4-5, phần 1-2-4 mình sync lại từ đầu. Còn phần 5 là của bác anvietcanh mình tách ra.
    https://www.fshare.vn/folder/147CXBG3UOMU
     
    Mr.Phuc cảm ơn bài này.
  13. Mr.Phuc

    Mr.Phuc New Member

    Tham gia ngày:
    21/10/17
    Bài viết:
    12
    Đã được cảm ơn:
    4
    Giới tính:
    Nam
    Cảm ơn bạn nhiều nhe.
     

Chia sẻ trang này