[Hình sự] El Camino - A Breaking Bad Movie 1080p NF WEB-DL DD+5.1 HDR HEVC-HDVN ~ El Camino (Vietsub

Thảo luận trong 'WEB-DL, HDTV' bắt đầu bởi adm820, 11/10/19.

Tags
  1. adm820

    adm820 Moderator Thành viên BQT

    Tham gia ngày:
    1/12/10
    Bài viết:
    7,766
    Đã được cảm ơn:
    181,610
    Giới tính:
    Nam
    [​IMG]

    upload_2019-10-11_15-5-9.png

    Mã:
    Format                      : Matroska
    Format version              : Version 4
    
    
    	

    File size : 5.03 GiB

    Duration : 2 h 2 min Overall bit rate : 5 869 kb/s Encoded date : UTC 2019-10-11 07:59:33 Writing application : mkvmerge v38.0.0 ('The Silent Type') 64-bit Writing library : libebml v1.3.9 + libmatroska v1.5.2 Video ID : 1 Format : HEVC Format/Info : High Efficiency Video Coding Format profile : Main 10@L4@Main HDR format : SMPTE ST 2086, HDR10 compatible Codec ID : V_MPEGH/ISO/HEVC Duration : 2 h 2 min Bit rate : 5 244 kb/s Width : 1 920 pixels Height : 1 080 pixels Display aspect ratio : 16:9 Frame rate mode : Constant Frame rate : 24.000 FPS Color space : YUV Chroma subsampling : 4:2:0 (Type 2) Bit depth : 10 bits Bits/(Pixel*Frame) : 0.105 Stream size : 4.48 GiB (89%) Default : Yes Forced : No Color range : Limited Color primaries : BT.2020 Transfer characteristics : PQ Matrix coefficients : BT.2020 non-constant Mastering display color pri : Display P3 Mastering display luminance : min: 0.0050 cd/m2, max: 4000 cd/m2 Maximum Content Light Level : 4850 cd/m2 Maximum Frame-Average Light : 1668 cd/m2 Audio ID : 2 Format : E-AC-3 Format/Info : Enhanced AC-3 Commercial name : Dolby Digital Plus Codec ID : A_EAC3 Duration : 2 h 2 min Bit rate mode : Constant Bit rate : 640 kb/s Channel(s) : 6 channels Channel layout : L R C LFE Ls Rs Sampling rate : 48.0 kHz Frame rate : 31.250 FPS (1536 SPF) Compression mode : Lossy Stream size : 562 MiB (11%) Title : English Language : English Service kind : Complete Main Default : Yes Forced : No Text ID : 3 Format : UTF-8 Codec ID : S_TEXT/UTF8 Codec ID/Info : UTF-8 Plain Text Duration : 1 h 55 min Bit rate : 51 b/s Count of elements : 1210 Stream size : 43.5 KiB (0%) Language : Vietnamese Default : Yes Forced : No
    [​IMG] [​IMG]
     
    41303113, siromua, VietThuan and 30 others like this.
  2. adm820

    adm820 Moderator Thành viên BQT

    Tham gia ngày:
    1/12/10
    Bài viết:
    7,766
    Đã được cảm ơn:
    181,610
    Giới tính:
    Nam
    Chỉnh sửa cuối: 12/10/19
  3. hungtran_arc

    hungtran_arc New Member

    Tham gia ngày:
    19/7/10
    Bài viết:
    13
    Đã được cảm ơn:
    4
    huyền thoại đã trở lại ^^ không biết có chất đc như BB ko nhỉ ^^
     
    thanhlehoangcd cảm ơn bài này.
  4. ductran93

    ductran93 Member

    Tham gia ngày:
    30/9/13
    Bài viết:
    96
    Đã được cảm ơn:
    62
    Tiếc quá máy mình không hỗ trợ HDR :-<
     
    thanhlehoangcd cảm ơn bài này.
  5. liemvn2212

    liemvn2212 Well-Known Member

    Tham gia ngày:
    8/6/09
    Bài viết:
    867
    Đã được cảm ơn:
    36,513
    Giới tính:
    Nam
    Nghề nghiệp:
    IT Apprentice
    Nơi ở:
    Sài Gòn
    Xài PotPlayer xem được HDR bạn. :)
     
    ductran93 cảm ơn bài này.
  6. chumb0

    chumb0 Active Member

    Tham gia ngày:
    17/7/12
    Bài viết:
    893
    Đã được cảm ơn:
    194
    Giới tính:
    Nam
    Nghề nghiệp:
    CHủ Quán Game2000C
    Nơi ở:
    Phố Đầu Đê - Tiến Thịnh - Mê Linh - Hà Nội
    hay qúa
     
  7. ductran93

    ductran93 Member

    Tham gia ngày:
    30/9/13
    Bài viết:
    96
    Đã được cảm ơn:
    62
    Thanks bác, dùng potplayer màu có tươi hơn, cơ mà những khung hình có màu đỏ nhìn chóe chóe hơi ghê :))
     
    liemvn2212 cảm ơn bài này.
  8. tiensh98

    tiensh98 Active Member

    Tham gia ngày:
    22/10/17
    Bài viết:
    604
    Đã được cảm ơn:
    231
    Giới tính:
    Nam
    nhưng nó vẫn tối hơn bình thường phải ko bác :3
     
  9. liemvn2212

    liemvn2212 Well-Known Member

    Tham gia ngày:
    8/6/09
    Bài viết:
    867
    Đã được cảm ơn:
    36,513
    Giới tính:
    Nam
    Nghề nghiệp:
    IT Apprentice
    Nơi ở:
    Sài Gòn
    Dù gì cũng là dùng phần mềm giải mã HDR -> SDR nên chỉ được đến thế, các vùng màu sáng hay bị mất chi tiết.
    Cũng tùy phim á bạn, có TV HDR xem thì ok hơn dùng soft. :)
     
    ductran93 cảm ơn bài này.
  10. adm820

    adm820 Moderator Thành viên BQT

    Tham gia ngày:
    1/12/10
    Bài viết:
    7,766
    Đã được cảm ơn:
    181,610
    Giới tính:
    Nam
    update bản ko có HDR
     
    liemvn2212 and ductran93 like this.
  11. minhquan113

    minhquan113 Member

    Tham gia ngày:
    9/8/13
    Bài viết:
    92
    Đã được cảm ơn:
    19
    Giới tính:
    Nam
    Nơi ở:
    Hà Nội
    Nên xem bản nào thì ổn hơn ạ ? mình xem mpc-hc trên PC
     
  12. adm820

    adm820 Moderator Thành viên BQT

    Tham gia ngày:
    1/12/10
    Bài viết:
    7,766
    Đã được cảm ơn:
    181,610
    Giới tính:
    Nam
    ko có màn hình hỗ trợ hdrr thì chọn cái bản ko HDR nhé
     
    minhquan113 cảm ơn bài này.
  13. nicolasphuong

    nicolasphuong Well-Known Member

    Tham gia ngày:
    14/7/10
    Bài viết:
    424
    Đã được cảm ơn:
    503
    Tí play thử trên màn 4k xem có lên HDR ko?lần đâu gặp file có HDR mà ko phải 4K @@
     
  14. hungtran_arc

    hungtran_arc New Member

    Tham gia ngày:
    19/7/10
    Bài viết:
    13
    Đã được cảm ơn:
    4
    Có tập 2 chưa bạn ơi
     

Chia sẻ trang này