[Hoạt Hình | 1 Link] - Nobita và Cuốn nhật ký tương lai

Thảo luận trong 'Link Phim - Nhạc chờ phục hồi' bắt đầu bởi malayvuong, 29/3/11.

  1. malayvuong

    malayvuong New Member

    Tham gia ngày:
    2/10/10
    Bài viết:
    39
    Đã được cảm ơn:
    1
    Điểm thành tích:
    0
    Nghề nghiệp:
    Trợ Lý + Phục Vụ
    Nơi ở:
    Việt Nam chứ đâu?
    Tiền:
    13 CR
    [​IMG]

    Mã:
    Format                           : AVI
    Format/Info                      : Audio Video Interleave
    File size                        : 168 MiB
    
    
    	

    Duration : 16mn 16s

    Overall bit rate : 1 441 Kbps Writing application : VirtualDubMod 1.5.10.2 (build 2540/release) Writing library : VirtualDubMod build 2540/release Video ID : 0 Format : MPEG-4 Visual Format profile : Advanced Simple@L5 Format settings, BVOP : Yes Format settings, QPel : No Format settings, GMC : No warppoints Format settings, Matrix : Default (H.263) Muxing mode : Packed bitstream Codec ID : XVID Codec ID/Hint : XviD Duration : 16mn 16s Bit rate : 1 373 Kbps Width : 720 pixels Height : 540 pixels Display aspect ratio : 4:3 Frame rate : 29.970 fps Color space : YUV Chroma subsampling : 4:2:0 Bit depth : 8 bits Scan type : Progressive Bits/(Pixel*Frame) : 0.118 Stream size : 160 MiB (95%) Writing library : XviD 1.2.1 (UTC 2008-12-04) Audio ID : 1 Format : MPEG Audio Format version : Version 2 Format profile : Layer 3 Mode : Joint stereo Mode extension : Intensity Stereo Codec ID : 55 Codec ID/Hint : MP3 Duration : 16mn 15s Bit rate mode : Constant Bit rate : 56.0 Kbps Channel(s) : 2 channels Sampling rate : 24.0 KHz Stream size : 6.51 MiB (4%) Alignment : Split accross interleaves Interleave, duration : 33 ms (1.00 video frame) Interleave, preload duration : 500 ms
    Cảm ơn để thấy link!

    Bài viết lũn cũn mong mọi người thông cảm! :)
     
  2. ntl_bg

    ntl_bg Member

    Tham gia ngày:
    27/4/10
    Bài viết:
    242
    Đã được cảm ơn:
    1
    Điểm thành tích:
    18
    Tiền:
    940 CR
    Ðề: [Hoạt Hình | 1 Link] - Nobita và Cuốn nhật ký tương lai

    post sai box rùi bạn ơi, lần sau post vào mục non-HD nha
     
  3. malayvuong

    malayvuong New Member

    Tham gia ngày:
    2/10/10
    Bài viết:
    39
    Đã được cảm ơn:
    1
    Điểm thành tích:
    0
    Nghề nghiệp:
    Trợ Lý + Phục Vụ
    Nơi ở:
    Việt Nam chứ đâu?
    Tiền:
    13 CR
    Ðề: [Hoạt Hình | 1 Link] - Nobita và Cuốn nhật ký tương lai

    Nhờ Mod move bài viết qua mục Non-HD dùm em nha! :)
    Cảm ơn Mod nhiều! ^^
     

Chia sẻ trang này