[Hoạt hình] Garfield's Pet Force 2009 Bluray 1080p x264 DTS-HDMaNiAcS (Siêu nhân thú nuôi)

Thảo luận trong 'Fshare.vn' bắt đầu bởi mds_mds, 7/12/11.

  1. mds_mds

    mds_mds New Member

    Tham gia ngày:
    11/4/10
    Bài viết:
    2,089
    Đã được thích:
    5
    Điểm thành tích:
    0
    Nghề nghiệp:
    Thất nghiệp
    Nơi ở:
    Tất nhiên là VN
    Garfield's Pet Force 2009 Bluray 1080p x264 DTS-HDMaNiAcS

    [​IMG]

    Screen:

    [​IMG]
    [​IMG]
    [​IMG]

    Movie Info:

    Mã:
    [LEFT]Complete name                            : D:\Download\Phim le\Garfields Pet Force 2009 1080p\Garfield's.Pet.Force.2009.Bluray.1080p.x264.DTS-HDMaNiAcS.mkv
    Format                                   : Matroska
    Format version                           : Version 2
    File size                                : 6.33 GiB
    Duration                                 : 1h 13mn
    Overall bit rate                         : 12.4 Mbps
    Encoded date                             : UTC 2011-11-30 18:20:59
    Writing application                      : mkvmerge v5.0.1 ('Es ist Sommer') built on Oct  9 2011 11:55:43
    Writing library                          : libebml v1.2.2 + libmatroska v1.3.0
    
    Video
    ID                                       : 1
    Format                                   : AVC
    Format/Info                              : Advanced Video Codec
    Format profile                           : High@L4.1
    Format settings, CABAC                   : Yes
    Format settings, ReFrames                : 4 frames
    Codec ID                                 : V_MPEG4/ISO/AVC
    Duration                                 : 1h 13mn
    Bit rate                                 : 9 103 Kbps
    Nominal bit rate                         : 8 000 Kbps
    Width                                    : 1 920 pixels
    Height                                   : 1 036 pixels
    Display aspect ratio                     : 1.853
    Frame rate                               : 23.976 fps
    Color space                              : YUV
    Chroma subsampling                       : 4:2:0
    Bit depth                                : 8 bits
    Scan type                                : Progressive
    Bits/(Pixel*Frame)                       : 0.191
    Stream size                              : 4.67 GiB (74%)
    Title                                    : Garfield's.Pet.Force.2009.Bluray.1080p.x264.DTS-HDMaNiAcS
    Writing library                          : x264 core 116 r2074 2641b9e
    Encoding settings                        : cabac=1 / ref=4 / deblock=1:-1:-1 / analyse=0x3:0x113 / me=tesa / subme=11 / psy=1 / psy_rd=0.50:0.00 / mixed_ref=0 / me_range=24 / chroma_me=1 / trellis=2 / 8x8dct=1 / cqm=0 / deadzone=21,11 / fast_pskip=0 / chroma_qp_offset=-2 / threads=12 / sliced_threads=0 / nr=0 / decimate=1 / interlaced=0 / bluray_compat=0 / constrained_intra=0 / bframes=8 / b_pyramid=2 / b_adapt=2 / b_bias=0 / direct=3 / weightb=1 / open_gop=0 / weightp=2 / keyint=250 / keyint_min=23 / scenecut=40 / intra_refresh=0 / rc_lookahead=90 / rc=2pass / mbtree=1 / bitrate=8000 / ratetol=1.0 / qcomp=0.60 / qpmin=10 / qpmax=69 / qpstep=4 / cplxblur=20.0 / qblur=0.5 / ip_ratio=1.40 / aq=2:0.90
    Language                                 : English
    
    Audio #1
    ID                                       : 2
    Format                                   : DTS
    Format/Info                              : Digital Theater Systems
    Codec ID                                 : A_DTS
    Duration                                 : 1h 13mn
    Bit rate mode                            : Constant
    Bit rate                                 : 755 Kbps
    Channel(s)                               : 6 channels
    Channel positions                        : Front: L C R, Side: L R, LFE
    Sampling rate                            : 48.0 KHz
    Bit depth                                : 24 bits
    Compression mode                         : Lossy
    Stream size                              : 396 MiB (6%)
    Language                                 : English
    
    Audio #2
    ID                                       : 3
    Format                                   : AC-3
    Format/Info                              : Audio Coding 3
    Mode extension                           : CM (complete main)
    Codec ID                                 : A_AC3
    Duration                                 : 1h 13mn
    Bit rate mode                            : Constant
    Bit rate                                 : 448 Kbps
    Channel(s)                               : 6 channels
    Channel positions                        : Front: L C R, Side: L R, LFE
    Sampling rate                            : 48.0 KHz
    Bit depth                                : 16 bits
    Compression mode                         : Lossy
    Stream size                              : 235 MiB (4%)
    Language                                 : Greek
    
    Audio #3
    ID                                       : 4
    Format                                   : DTS
    Format/Info                              : Digital Theater Systems
    Format profile                           : MA / Core
    Codec ID                                 : A_DTS
    Duration                                 : 1h 13mn
    Bit rate mode                            : Variable
    Bit rate                                 : 1 576 Kbps / 1 510 Kbps
    Channel(s)                               : 6 channels
    Channel positions                        : Front: L C R, Side: L R, LFE
    Sampling rate                            : 48.0 KHz
    Bit depth                                : 24 bits
    Compression mode                         : Lossless / Lossy
    Language                                 : Spanish
    
    Audio #4
    ID                                       : 5
    Format                                   : AC-3
    Format/Info                              : Audio Coding 3
    Mode extension                           : CM (complete main)
    Codec ID                                 : A_AC3
    Duration                                 : 1h 13mn
    Bit rate mode                            : Constant
    Bit rate                                 : 224 Kbps
    Channel(s)                               : 2 channels
    Channel positions                        : Front: L R
    Sampling rate                            : 48.0 KHz
    Bit depth                                : 16 bits
    Compression mode                         : Lossy
    Stream size                              : 118 MiB (2%)
    Language                                 : Russian
    [/LEFT]

    Nội dung chính:

    Link Down:

    [DOWNBOX][HIDE]Garfields_Pet_Force_2009_Bluray_1080p_x264_DTS-HDMaNiAcS.mkv - Fshare - Dịch vụ chia sẻ, lưu trữ dữ liệu miễn phí tốt nhất
    [/HIDE][/DOWNBOX]

    Sub việt: Garfield's Pet Force - Subtitles - Subscene

     
    Chỉnh sửa cuối: 7/6/12
  2. khoahq

    khoahq New Member

    Tham gia ngày:
    24/1/10
    Bài viết:
    1,485
    Đã được thích:
    1
    Điểm thành tích:
    0
    Nghề nghiệp:
    tkart.vn
    Nơi ở:
    Đè Nẽng
    Web:
    Ðề: [Hoạt hình] Garfield's Pet Force 2009 Bluray 1080p x264 DTS-HDMaNiAcS (Siêu nhân thú nuôi)

    rating khá tệ :( ko biết có hay ko chủ thớt
     
  3. Steeve - Lee - Lỳ

    Steeve - Lee - Lỳ New Member

    Tham gia ngày:
    1/12/11
    Bài viết:
    1,607
    Đã được thích:
    1
    Điểm thành tích:
    0
    Nơi ở:
    Vietnamese
    Ðề: [Hoạt hình] Garfield's Pet Force 2009 Bluray 1080p x264 DTS-HDMaNiAcS (Siêu nhân thú nuôi)

    Phim này dành cho mấy bé thì được =))
     
  4. mds_mds

    mds_mds New Member

    Tham gia ngày:
    11/4/10
    Bài viết:
    2,089
    Đã được thích:
    5
    Điểm thành tích:
    0
    Nghề nghiệp:
    Thất nghiệp
    Nơi ở:
    Tất nhiên là VN
    Ðề: [Hoạt hình] Garfield's Pet Force 2009 Bluray 1080p x264 DTS-HDMaNiAcS (Siêu nhân thú nuôi)

    Phim dành cho trẻ con mà trẻ con thì chẳng có mấy đứa nó biết lên IMDB để vote -- Rating thấp là phải. =))
     
  5. plimh

    plimh New Member

    Tham gia ngày:
    16/3/11
    Bài viết:
    571
    Đã được thích:
    0
    Điểm thành tích:
    0
    Ðề: [Hoạt hình] Garfield's Pet Force 2009 Bluray 1080p x264 DTS-HDMaNiAcS (Siêu nhân thú nuôi)

    =)) =)) =)) =))
     
  6. conghieu1978

    conghieu1978 Moderator

    Tham gia ngày:
    20/5/11
    Bài viết:
    5,909
    Đã được thích:
    4
    Điểm thành tích:
    38
    Nghề nghiệp:
    ...............
    Nơi ở:
    DaLat
  7. mds_mds

    mds_mds New Member

    Tham gia ngày:
    11/4/10
    Bài viết:
    2,089
    Đã được thích:
    5
    Điểm thành tích:
    0
    Nghề nghiệp:
    Thất nghiệp
    Nơi ở:
    Tất nhiên là VN
    Ðề: [Hoạt hình] Garfield's Pet Force 2009 Bluray 1080p x264 DTS-HDMaNiAcS (Siêu nhân thú nuôi)

    Sub này hơi bị lệch. Bác nào có time sync hộ e phát. Bận quá ko có tg sync
     
  8. ngodzung

    ngodzung New Member

    Tham gia ngày:
    27/12/09
    Bài viết:
    424
    Đã được thích:
    1
    Điểm thành tích:
    0
    Ðề: [Hoạt hình] Garfield's Pet Force 2009 Bluray 1080p x264 DTS-HDMaNiAcS (Siêu nhân thú nuôi)

    Để kéo về cho trẻ con xem quan tâm gì đến rating đâu
     
  9. GNAD96213

    GNAD96213 Member

    Tham gia ngày:
    28/9/11
    Bài viết:
    938
    Đã được thích:
    22
    Điểm thành tích:
    18
    Giới tính:
    Nam
    Nghề nghiệp:
    Student
    Nơi ở:
    Hà Nội
    Web:
    Phim hoạt hình Garfield thì chiếu trên Cartoon Network suốt nhưng không có phụ đề nên cũng hơi nhàm :|
    Không biết phim lẻ này thế nào đây...
    Cứ kéo về xem thử rồi comment sau vậy :))
     

Chia sẻ trang này