[Fshare] [Hoạt hình] Postman Pat : The Movie 2014 ViE 1080p BluRay DTS x264 | D-ZON3 | DON | VietHD ~ Huyền T

Thảo luận trong 'Phim hoạt hình' bắt đầu bởi v0minh, 1/4/16.

  1. v0minh

    v0minh Huyền Thoại

    Tham gia ngày:
    23/12/14
    Bài viết:
    19,546
    Đã được cảm ơn:
    142,391
    Điểm thành tích:
    113
    Giới tính:
    Nam
    Nghề nghiệp:
    Thợ Chém
    Nơi ở:
    Hải Phòng
    Web:
    Tiền:
    6,809 CR
    [TABLE=align: center][TR][TD=bgcolor: Crimson, align:center]

    Postman Pat : The Movie 2014 ViE 1080p BluRay DTS x264-WEST


    [/TD][/TR][TR][TD=align: center, bgcolor: #FFFFCC]
    Huyền Thoại Đưa Thư

    {Thuyết Minh}

    (Jim Broadbent, Jane Carr, Robin Atkin Downes)


    [​IMG] Ratings: 4.6/10 from 1,077 users


    [/TD][/TR][/TABLE]

    [​IMG]

    Thông tin phim. Click HERE:
    [TABLE=align: center, width: 700][TR][TD=bgcolor: RoyalBlue, align:center]Nội dung phim[/TD][/TR]
    [TR][TD=bgcolor: #FFFFCC]
    Pat là một nhân viên đưa thư được mọi người yêu quý. Kể từ khi bước vào một cuộc cạnh tranh trong show truyền hình tìm kiếm tài năng của quốc gia, anh bắt đầu đối mặt với những cám dỗ về tiền tài, địa vị cũng như vẻ bên ngoài bóng bảy. Pat phải đấu tranh để lựa chọn giữa cuộc sống thôn quê giản dị ở Greendale chung quanh những bạn bè thân thuộc như trước kia, hay trở thành ngôi sao toàn cầu.

    [/TD][/TR][/TABLE]

    [TABLE=align: center, width: 700][TR][TD=bgcolor: RoyalBlue, align:center]Media Info[/TD][/TR]
    [TR][TD=bgcolor: #FFFFCC]

    Postman Pat The Movie 2014 ViE 1080p BluRay DTS x264-WEST
    Format : Matroska
    Format version : Version 4 / Version 2
    File size : 5.30 GiB
    Duration : 1h 27mn
    Overall bit rate : 8 630 Kbps
    Encoded date : UTC 2016-03-17 10:56:07
    Writing application : mkvmerge v6.6.0 ('The Edge Of The In Between') built on Dec 1 2013 17:55:00
    Writing library : libebml v1.3.0 + libmatroska v1.4.1
    DURATION : 01:20:17.728000000
    NUMBER_OF_FRAMES : 1442
    NUMBER_OF_BYTES : 49243
    Video
    ID : 2
    Format : AVC
    Format/Info : Advanced Video Codec
    Format profile : High@L4.1
    Format settings, CABAC : Yes
    Format settings, ReFrames : 4 frames
    Codec ID : V_MPEG4/ISO/AVC
    Duration : 1h 27mn
    Bit rate : 5 611 Kbps
    Width : 1 920 pixels
    Height : 1 040 pixels
    Display aspect ratio : 1.85:1
    Frame rate mode : Constant
    Frame rate : 23.976 fps
    Color space : YUV
    Chroma subsampling : 4:2:0
    Bit depth : 8 bits
    Scan type : Progressive
    Bits/(Pixel*Frame) : 0.117
    Stream size : 3.34 GiB (63%)
    Writing library : x264 core 142 r2479 dd79a61
    aq=1:1.00
    Language : English
    Default : Yes
    Forced : No

    Audio #1
    ID : 1
    Format : DTS
    Format/Info : Digital Theater Systems
    Mode : 16
    Format settings, Endianness : Big
    Codec ID : A_DTS
    Duration : 1h 27mn
    Bit rate mode : Constant
    Bit rate : 1 510 Kbps
    Channel(s) : 6 channels
    Channel positions : Front: L C R, Side: L R, LFE
    Sampling rate : 44.1 KHz
    Bit depth : 16 bits
    Compression mode : Lossy
    Stream size : 949 MiB (18%)
    Title : TM - Audio Synced By Vinadot
    Language : Vietnamese
    Default : Yes
    Forced : Yes
    DURATION : 01:27:51.642000000

    Audio #2
    ID : 3
    Format : DTS
    Format/Info : Digital Theater Systems
    Mode : 16
    Format settings, Endianness : Big
    Codec ID : A_DTS
    Duration : 1h 27mn
    Bit rate mode : Constant
    Bit rate : 1 509 Kbps
    Channel(s) : 6 channels
    Channel positions : Front: L C R, Side: L R, LFE
    Sampling rate : 48.0 KHz
    Bit depth : 24 bits
    Compression mode : Lossy
    Stream size : 948 MiB (17%)
    Language : English
    Default : No
    Forced : No

    Text
    ID : 4
    Format : UTF-8
    Codec ID : S_TEXT/UTF8
    Codec ID/Info : UTF-8 Plain Text
    Language : English
    Default : No
    Forced : No


    [/TD][/TR][/TABLE]

    [TABLE=align: center, width: 700][TR][TD=bgcolor: RoyalBlue, align:center]Screenshots[/TD][/TR][/TABLE]

    [​IMG] [​IMG]
    [​IMG] [​IMG]
    [​IMG] [​IMG]
    [​IMG] [​IMG]

    [TABLE=align: center, width: 700][TR][TD=bgcolor: RoyalBlue, align:center]Trailer[/TD][/TR]
    [TR][TD=bgcolor: #FFFFCC]

    [video=youtube;6nL1RL9zUms]http://www.youtube.com/watch?v=6nL1RL9zUms[/video]​


    [/TD][/TR][/TABLE]

    [TABLE=align: center, width: 700][TR][TD=bgcolor: RoyalBlue, align:center]Phụ Đề[/TD][/TR][TR][TD=align: center, bgcolor: #FFFFCC]

    http://subscene.com/subtitles/postman-pat-the-movie


    [/TD][/TR][/TABLE]

    [TABLE=align: center, width: 700][TR][TD=bgcolor: RoyalBlue, align:center]Download[/TD][/TR]
    [TR][TD=align: center, bgcolor: #FFFFCC]

    Dung lượng: 5.3 GiB
    Nhấn nút Cảm ơn (dưới chân bài) để thấy link!

    [/TD][/TR][/TABLE]



    __________________________________________________ ________________________________
    [​IMG]
    KHO PHiM HD, BluRay - Update hàng ngày | Xuân Bính thân 2016
    Series/Collection | Phim Tài Liệu | HOT/Bom Tân | Blu-ray/Remux | Asia | US-EU | Cô Trang | Sniper | Lông tiêng | VietNam
    Incest | LGBT | ROCK/DemoWorld | Ghibli Studio | New year/Christmas | Van Damme | Bruce Lee | Diep Van | Hoang Phi Hong
    Star Wars | 007 | Mad Max | Fast and Furious | The Hunger Games
    __________________________________________________ ________________________________​
     
    fsvnhd and thao_t like this.

Chia sẻ trang này