[Fshare] Hội Ngộ Danh Hài 2014 - Kỳ 1

Thảo luận trong 'Phim bộ - Series' bắt đầu bởi linh2607, 3/1/14.

  1. linh2607

    linh2607 Member

    Tham gia ngày:
    24/3/10
    Bài viết:
    52
    Đã được thích:
    1
    Điểm thành tích:
    8
    Tiền:
    376 CR
    Hi Các bạn, cuối tuần rồi, gửi các bạn bản Full khá đẹp, rõ để thư giãn nhé!
    [​IMG]

    Code:

    Complete name : HoiNgoDanhHai-Ky1-21122013.mpg
    Format : MPEG-PS
    File size : 3.26 GiB
    Duration : 1h 14mn
    Overall bit rate mode : Variable
    Overall bit rate : 6 297 Kbps

    Video
    ID : 224 (0xE0)
    Format : MPEG Video
    Format version : Version 2
    Format profile : Main@Main
    Format settings, BVOP : No
    Format settings, Matrix : Custom
    Format settings, GOP : Variable
    Duration : 1h 14mn
    Bit rate mode : Variable
    Bit rate : 5 948 Kbps
    Maximum bit rate : 8 500 Kbps
    Width : 720 pixels
    Height : 480 pixels
    Display aspect ratio : 4:3
    Frame rate : 29.970 fps
    Standard : NTSC
    Color space : YUV
    Chroma subsampling : 4:2:0
    Bit depth : 8 bits
    Scan type : Interlaced
    Scan order : Top Field First
    Compression mode : Lossy
    Bits/(Pixel*Frame) : 0.574
    Time code of first frame : 00:00:00:00
    Time code source : Group of pictures header
    Stream size : 3.08 GiB (94%)
    Color primaries : BT.601 NTSC
    Transfer characteristics : BT.601
    Matrix coefficients : BT.601

    Audio
    ID : 192 (0xC0)
    Format : MPEG Audio
    Format version : Version 1
    Format profile : Layer 2
    Mode : Joint stereo
    Mode extension : Intensity Stereo + MS Stereo
    Duration : 1h 14mn
    Bit rate mode : Constant
    Bit rate : 224 Kbps
    Channel count : 2 channels
    Sampling rate : 48.0 KHz
    Compression mode : Lossy
    Stream size : 119 MiB (4%)


    HoiNgoDanhHai-Ky1-21122013
    HoiNgoDanhHai-Ky1-21122013 --
     
    Chỉnh sửa cuối: 5/1/14
  2. sbsaobangsb

    sbsaobangsb Active Member

    Tham gia ngày:
    13/8/08
    Bài viết:
    1,659
    Đã được thích:
    3
    Điểm thành tích:
    38
    Tiền:
    8,484 CR
    Ðề: Hội Ngộ Danh Hài 2014 - Kỳ 1

    cho chút thông tin & hình ảnh đi bạn
     
  3. chrisjericho26

    chrisjericho26 New Member

    Tham gia ngày:
    13/7/09
    Bài viết:
    8
    Đã được thích:
    0
    Điểm thành tích:
    1
    Tiền:
    555 CR
    Ðề: Hội Ngộ Danh Hài 2014 - Kỳ 1

    Bạn cho vài thông tin và hình ảnh để mọi người cùng biết đi. Chứ down về mà chất lượng tồi thì mất công lắm.
     
  4. hanbang101010

    hanbang101010 New Member

    Tham gia ngày:
    21/12/09
    Bài viết:
    2
    Đã được thích:
    0
    Điểm thành tích:
    0
    Tiền:
    80 CR
    Ðề: Hội Ngộ Danh Hài 2014 - Kỳ 1

    3.3Gb chắc cũng xem dc!
     
  5. le_anh_nhi

    le_anh_nhi Member

    Tham gia ngày:
    20/7/12
    Bài viết:
    426
    Đã được thích:
    0
    Điểm thành tích:
    16
    Tiền:
    717 CR
    hình đâu anh????????????????
     
  6. linh2607

    linh2607 Member

    Tham gia ngày:
    24/3/10
    Bài viết:
    52
    Đã được thích:
    1
    Điểm thành tích:
    8
    Tiền:
    376 CR
    Ðề: Hội Ngộ Danh Hài 2014 - Kỳ 1

    đảm bảo hình ảnh đẹp, âm thanh chất lượng cao. Vì mình ko có nhiều time nên share link thôi nha. Vài ữa up hết năm ngoái và up tuần rồi cho mọi người xem.
    Các bạn đã down về xem cứ đưa ra nhận xét cho các bạn khác yên tâm down về. :)
     
  7. the_calm_dawn

    the_calm_dawn New Member

    Tham gia ngày:
    4/2/12
    Bài viết:
    1,382
    Đã được thích:
    0
    Điểm thành tích:
    0
    Tiền:
    493 CR
    Ðề: Hội Ngộ Danh Hài 2014 - Kỳ 1

    Ít nhất cũng phải có giới thiệu về chương trình này chứ :D
     
  8. linh2607

    linh2607 Member

    Tham gia ngày:
    24/3/10
    Bài viết:
    52
    Đã được thích:
    1
    Điểm thành tích:
    8
    Tiền:
    376 CR
    Ðề: Hội Ngộ Danh Hài 2014 - Kỳ 1

    trailer thì ngày nào cũng phát, search trên ytb thì ra đầy. Cái này ko dám up lên ytb vì sợ vi phạm bản quyền :D
     
  9. hang_gom

    hang_gom Active Member

    Tham gia ngày:
    24/8/12
    Bài viết:
    2,314
    Đã được thích:
    6
    Điểm thành tích:
    38
    Tiền:
    1,958 CR
    Ðề: Hội Ngộ Danh Hài 2014 - Kỳ 1

    Giúp bạn 1 phát :
    [​IMG]
    Mã:
    Complete name                  : HoiNgoDanhHai-Ky1-21122013.mpg
    Format                         : MPEG-PS
    File size                      : 3.26 GiB
    Duration                       : 1h 14mn
    Overall bit rate mode          : Variable
    Overall bit rate               : 6 297 Kbps
    
    Video
    ID                             : 224 (0xE0)
    Format                         : MPEG Video
    Format version                 : Version 2
    Format profile                 : Main@Main
    Format settings, BVOP          : No
    Format settings, Matrix        : Custom
    Format settings, GOP           : Variable
    Duration                       : 1h 14mn
    Bit rate mode                  : Variable
    Bit rate                       : 5 948 Kbps
    Maximum bit rate               : 8 500 Kbps
    Width                          : 720 pixels
    Height                         : 480 pixels
    Display aspect ratio           : 4:3
    Frame rate                     : 29.970 fps
    Standard                       : NTSC
    Color space                    : YUV
    Chroma subsampling             : 4:2:0
    Bit depth                      : 8 bits
    Scan type                      : Interlaced
    Scan order                     : Top Field First
    Compression mode               : Lossy
    Bits/(Pixel*Frame)             : 0.574
    Time code of first frame       : 00:00:00:00
    Time code source               : Group of pictures header
    Stream size                    : 3.08 GiB (94%)
    Color primaries                : BT.601 NTSC
    Transfer characteristics       : BT.601
    Matrix coefficients            : BT.601
    
    Audio
    ID                             : 192 (0xC0)
    Format                         : MPEG Audio
    Format version                 : Version 1
    Format profile                 : Layer 2
    Mode                           : Joint stereo
    Mode extension                 : Intensity Stereo + MS Stereo
    Duration                       : 1h 14mn
    Bit rate mode                  : Constant
    Bit rate                       : 224 Kbps
    Channel count                  : 2 channels
    Sampling rate                  : 48.0 KHz
    Compression mode               : Lossy
    Stream size                    : 119 MiB (4%)
    
     
    Chỉnh sửa cuối: 4/1/14
  10. atn

    atn Member

    Tham gia ngày:
    1/9/13
    Bài viết:
    309
    Đã được thích:
    1
    Điểm thành tích:
    18
    Tiền:
    1,341 CR
    Ðề: Hội Ngộ Danh Hài 2014 - Kỳ 1

    Links càng huyền bí càng thích, ráng lê lết 3,3gb down về xem thử. Thanks chủ topic, chờ những phần tiếp theo của bạn :D
     
  11. gprsmms

    gprsmms Active Member

    Tham gia ngày:
    27/4/10
    Bài viết:
    1,811
    Đã được thích:
    1
    Điểm thành tích:
    36
    Tiền:
    1,046 CR
    Ðề: Hội Ngộ Danh Hài 2014 - Kỳ 1

    thanks for sharing
     
  12. satthanleo

    satthanleo New Member

    Tham gia ngày:
    7/12/09
    Bài viết:
    18
    Đã được thích:
    0
    Điểm thành tích:
    0
    Tiền:
    478 CR
    Ðề: Hội Ngộ Danh Hài 2014 - Kỳ 1

    với mình giờ tìm hài down về khó quá, ko có điều kiện xem tivi nên ko biết khi nào có hài mới cả, up hết lên nhá thớt. Thanks.
     
  13. huhem35

    huhem35 Active Member

    Tham gia ngày:
    31/8/10
    Bài viết:
    1,316
    Đã được thích:
    4
    Điểm thành tích:
    38
    Tiền:
    2,682 CR
    Ðề: Hội Ngộ Danh Hài 2014 - Kỳ 1

    cám ơn bạn đã chia sẻ , xem phim hài cho đời thêm vui .
     
  14. chuabanoidoc

    chuabanoidoc Member

    Tham gia ngày:
    27/3/10
    Bài viết:
    125
    Đã được thích:
    5
    Điểm thành tích:
    18
    Tiền:
    3,277 CR
    Ðề: Hội Ngộ Danh Hài 2014 - Kỳ 1

    Quá mờ giống như coi dĩa VCD hồi mấy năm trước vậy
     
  15. smi

    smi New Member

    Tham gia ngày:
    5/8/12
    Bài viết:
    11
    Đã được thích:
    0
    Điểm thành tích:
    1
    Tiền:
    981 CR
    Bản này rất tệ, mờ... chuẩn VCD đã có từ lâu rồi bạn ơi !!!!!!!!
     

Chia sẻ trang này