[MULTI] Horrible Histories The Movie 2019 720p HDCAM-ORCA88

Thảo luận trong 'mHD, SD' bắt đầu bởi denecius, 15/8/19 lúc 02:24.

  1. denecius

    denecius Well-Known Member

    Tham gia ngày:
    12/11/10
    Bài viết:
    3,930
    Đã được cảm ơn:
    141
    Điểm thành tích:
    63
    Tiền:
    4,938 CR
    Horrible Histories The Movie 2019 720p HDCAM-ORCA88

    [​IMG]

    Information:
    Mã:
    
    
    	

    https://www.imdb.com/title/tt7715070/

    General Unique ID : 262721863191480534260952818465056406247 (0xC5A663ED18E99A47949745C39C6EBAE7) Complete name : Horrible Histories The Movie 2019 720p HDCAM-ORCA88.mkv Format : Matroska Format version : Version 4 / Version 2 File size : 1.93 GiB Duration : 1 h 26 min Overall bit rate mode : Variable Overall bit rate : 3 196 kb/s Encoded date : UTC 2019-08-14 02:09:48 Writing application : TMPGEnc Video Mastering Works 7 Version 7.0.11.12 Writing library : TMPGEnc Video Mastering Works 7 Version 7.0.11.12 Video ID : 1 Format : AVC Format/Info : Advanced Video Codec Format profile : High@L3.2 Format settings, CABAC : Yes Format settings, RefFrames : 6 frames Codec ID : V_MPEG4/ISO/AVC Duration : 1 h 26 min Bit rate mode : Variable Bit rate : 2 908 kb/s Maximum bit rate : 18.4 Mb/s Width : 1 280 pixels Height : 596 pixels Display aspect ratio : 2.148 Frame rate mode : Constant Frame rate : 30.000 FPS Standard : Component Color space : YUV Chroma subsampling : 4:2:0 Bit depth : 8 bits Scan type : Progressive Bits/(Pixel*Frame) : 0.127 Stream size : 1.76 GiB (91%) Default : Yes Forced : No Color range : Limited Color primaries : BT.709 Transfer characteristics : BT.709 Matrix coefficients : BT.709 Audio ID : 2 Format : AC-3 Format/Info : Audio Coding 3 Format settings, Endianness : Big Codec ID : A_AC3 Duration : 1 h 26 min Bit rate mode : Constant Bit rate : 224 kb/s Channel(s) : 2 channels Channel positions : Front: L R Sampling rate : 48.0 kHz Frame rate : 31.250 FPS (1536 SPF) Bit depth : 16 bits Compression mode : Lossy Stream size : 138 MiB (7%) Service kind : Complete Main Default : Yes Forced : No
    Screens:
    [​IMG]

    [​IMG]

    [​IMG]



    Share-Online.biz
    Mã:
    http://www.share-online.biz/dl/KZO6R8WPQ8E
    http://www.share-online.biz/dl/CVE6R8WPZO
    
    Rapidgator.net
    Mã:
    https://rapidgator.net/file/54e48654a43c948fb434a565348c7bf1/orca-htm720.part1.rar.html
    https://rapidgator.net/file/0db4ba40a82472ba40d00034a922ce7b/orca-htm720.part2.rar.html
    
     

Chia sẻ trang này