[MULTI] How It's Made Season 31 [2019] 1080i HDTV x264 AC3 English Sub

Thảo luận trong 'Phim tài liệu - Documentaries' bắt đầu bởi iscol, 2/2/19.

  1. iscol

    iscol Moderator

    Tham gia ngày:
    1/9/09
    Bài viết:
    4,551
    Đã được cảm ơn:
    9,616
    Điểm thành tích:
    113
    Giới tính:
    Nam
    Nghề nghiệp:
    Computer
    Nơi ở:
    Việt Nam
    Tiền:
    1,974 CR
    [​IMG]
    How It's Made Season 31 [2019] 1080i HDTV x264 AC3 English Sub​

    Episodes List

    S31 E13 · Leather Overnight Bags; Horse Exercises; Air Hockey Tables; Copper Sculptures
    S31 E12 · DeLorean Restoration; Bison Fibre; Shuffleboard Tables; Friction Forged Knives
    S31 E11 · Wood Slat Baskets; Bells; Gyroscopic Stabilizers (Part 1); Gyroscopic Stabilizers (Part 2)

    S31 E10 · Sleeper Rigs; Pecans; Steel Pulleys; Acetate Eyewear

    S31 E09 · Cotton; Rodeo Roping Chutes; Asian Noodles; Rotary Engines
    S31 E08 · Educational Robots; Boxing Belts; Boat Radar Mounts; European-Style Radiators
    S31 E07 · Glass Faucets; Fire Truck Ladders; Antique Clock Restoration; Barbecue Utensils
    S31 E06 · Rice Cookers; Concealment Furniture; Promotional Origami; Hedge Shears
    S31 E05 · Mountain Bike Tires; Leaf and Debris Vacuums; Canned Meat; Fillet Knives
    S31 E04 · Steamer Baskets; Three-Wheel Scooters; Prefabricated Conservatories; Copper Cookware
    S31 E03 · Spinning Reels; Plasma Protein Therapies; 3D Cups; Stainless Steel Beer Kegs
    S31 E02 · Laptops; Panettone; Saxophones
    S31 E01 · Basque Pelota Balls; Pallet Trucks; Dumplings; Brass Faucets

    File Info:

    Mã:
    General
    Unique ID  : 193768482835133717859485325440675723843 (0x91C673CC5CACBCC40D5BB327CB9BBA43)
    Complete name  : How It's Made S31E01 Basque Pelota Balls. Pallet Trucks. Dumplings and Brass Faucets.mkv
    Format  : Matroska
    Format version  : Version 4
    File size  : 763 MiB
    Duration  : 21 min 17 s
    Overall bit rate  : 5 008 kb/s
    Encoded date  : UTC 2019-01-29 11:34:48
    Writing application  : mkvmerge v30.1.0 ('Forever And More') 32-bit
    Writing library  : libebml v1.3.6 + libmatroska v1.4.9
    Video
    ID  : 1
    Format  : AVC
    Format/Info  : Advanced Video Codec
    Format profile  : High@L4
    Format settings  : CABAC / 2 Ref Frames
    Format settings, CABAC  : Yes
    Format settings, ReFrames  : 2 frames
    Codec ID  : V_MPEG4/ISO/AVC
    Duration  : 21 min 17 s
    Bit rate  : 4 920 kb/s
    Width  : 1 920 pixels
    Height  : 1 080 pixels
    Display aspect ratio  : 16:9
    Frame rate mode  : Constant
    Frame rate  : 29.970 (30000/1001) FPS
    Color space  : YUV
    Chroma subsampling  : 4:2:0
    Bit depth  : 8 bits
    Scan type  : Progressive
    Bits/(Pixel*Frame)  : 0.079
    Stream size  : 743 MiB (97%)
    Writing library  : x264 core 148 r2579M 73ae2d1
    Encoding settings  : cabac=1 / ref=2 / deblock=1:0:0 / analyse=0x3:0x113 / me=hex / subme=2 / psy=1 / psy_rd=1.00:0.00 / mixed_ref=0 / me_range=16 / chroma_me=1 / trellis=0 / 8x8dct=1 / cqm=0 / deadzone=21,11 / fast_pskip=1 / chroma_qp_offset=0 / threads=1 / lookahead_threads=1 / sliced_threads=0 / nr=250 / decimate=1 / interlaced=0 / bluray_compat=0 / stitchable=1 / constrained_intra=0 / bframes=0 / weightp=1 / keyint=250 / keyint_min=25 / scenecut=40 / intra_refresh=0 / rc_lookahead=10 / rc=2pass / mbtree=1 / bitrate=4920 / ratetol=1.0 / qcomp=0.60 / qpmin=5 / qpmax=69 / qpstep=4 / cplxblur=20.0 / qblur=0.5 / ip_ratio=1.40 / aq=1:1.00
    Language  : English
    Default  : Yes
    Forced  : No
    Audio
    ID  : 2
    Format  : AAC LC SBR
    Format/Info  : Advanced Audio Codec Low Complexity with Spectral Band Replication
    Commercial name  : HE-AAC
    Format settings  : Implicit
    Codec ID  : A_AAC-2
    Duration  : 21 min 17 s
    Bit rate  : 127 kb/s
    Channel(s)  : 2 channels
    Channel layout  : L R
    Sampling rate  : 48.0 kHz
    Frame rate  : 23.438 FPS (2048 SPF)
    Compression mode  : Lossy
    Stream size  : 19.3 MiB (3%)
    Language  : English
    Default  : Yes
    Forced  : No
    Text
    ID  : 3
    Format  : UTF-8
    Codec ID  : S_TEXT/UTF8
    Codec ID/Info  : UTF-8 Plain Text
    Duration  : 21 min 14 s
    Bit rate  : 86 b/s
    Count of elements  : 335
    Stream size  : 13.5 KiB (0%)
    Language  : English
    Default  : Yes
    Forced  : No
    
    Screenshot

    [​IMG]

    Download

    Fshare
    (E01 - E13 Finish season)

    https://www.fshare.vn/folder/GUOH63PXCKKU
     
    Chỉnh sửa cuối: 11/2/19
    #1 +2 CR
  2. iscol

    iscol Moderator

    Tham gia ngày:
    1/9/09
    Bài viết:
    4,551
    Đã được cảm ơn:
    9,616
    Điểm thành tích:
    113
    Giới tính:
    Nam
    Nghề nghiệp:
    Computer
    Nơi ở:
    Việt Nam
    Tiền:
    1,974 CR
    Cập nhật tập 11 - tập 13 hoàn tất season 31
     
    #2 +1 CR
  3. phan phong tan

    phan phong tan Well-Known Member

    Tham gia ngày:
    20/5/11
    Bài viết:
    758
    Đã được cảm ơn:
    490
    Điểm thành tích:
    63
    Giới tính:
    Nam
    Nghề nghiệp:
    Chuyên viên kinh tế
    Nơi ở:
    Việt Nam
    Tiền:
    1,435 CR
    Cám ơn iscol rất nhiều nhé.
     

Chia sẻ trang này