[Fshare] How The Universe Works S04 1080p AMZN WEB-DL DDP2.0 x264 - SiGMA ~ Cách Thức Vũ Trụ Hoạt Động

Thảo luận trong 'Phim tài liệu - Documentaries' bắt đầu bởi qazwsxrfvtgb, 12/10/19.

Tags
  1. qazwsxrfvtgb

    qazwsxrfvtgb Uploader

    Tham gia ngày:
    26/5/18
    Bài viết:
    367
    Đã được cảm ơn:
    7,656
    Điểm thành tích:
    93
    Tiền:
    438 CR
    How The Universe Works S04 1080p AMZN WEB-DL DDP2.0 x264 - SiGMA





    [​IMG]



    Explore space and our solar system like you've never seen it before, with new series The Planets. The series will explore the dramatic history and spectacular landscapes of our neighbouring planets such as Mars, Jupiter and Saturn. Eight planetary siblings, unfolding over 4.5 billion years. One family. Worlds apart.

    This stunningly ambitious series brings to life the most memorable events in the history of the solar system, by using groundbreaking visual effects to tell the thrilling story of all eight planets. Transporting you to the surface of these dynamic worlds to witness the moments of high drama that shaped each one, The Planets reveals how the latest science allows us to unlock their past lives. It pieces together clues of magnificent lost waterfalls on Mars, the mass planetary migrations as they jostled for position early in their history, and even the distant fate of Saturn as one of its moons awakens to form a beautiful water world.



    Mã:

    
    	

    General Unique ID : 27547901012098382092419484534240079825 (0x14B9886211C9B5F3901E611C38D66FD1) Complete name : How.The.Universe.Works.S04.1080p.AMZN.WEB-DL.DDP2.0.x264-SiGMA\How.The.Universe.Works.S04E01.How.The.Universe.Built.Your.Car.1080p.AMZN.WEB-DL.DD+2.0.H.264-SiGMA.mkv Format : Matroska Format version : Version 4 File size : 3.32 GiB Duration : 44 min 15 s Overall bit rate mode : Variable Overall bit rate : 10.7 Mb/s Encoded date : UTC 2018-02-01 09:42:38 Writing application : mkvmerge v20.0.0 ('I Am The Sun') 64-bit Writing library : libebml v1.3.5 + libmatroska v1.4.8 Video ID : 1 Format : AVC Format/Info : Advanced Video Codec Format profile : High@L4 Format settings : CABAC / 4 Ref Frames Format settings, CABAC : Yes Format settings, Reference frames : 4 frames Codec ID : V_MPEG4/ISO/AVC Duration : 44 min 15 s Bit rate mode : Variable Bit rate : 10.5 Mb/s Maximum bit rate : 15.0 Mb/s Width : 1 920 pixels Height : 1 080 pixels Display aspect ratio : 16:9 Frame rate mode : Constant Frame rate : 25.000 FPS Color space : YUV Chroma subsampling : 4:2:0 Bit depth : 8 bits Scan type : Progressive Bits/(Pixel*Frame) : 0.203 Stream size : 3.25 GiB (98%) Default : Yes Forced : No Color range : Limited Color primaries : BT.709 Transfer characteristics : BT.709 Matrix coefficients : BT.709 Audio ID : 2 Format : E-AC-3 Format/Info : Enhanced AC-3 Commercial name : Dolby Digital Plus Codec ID : A_EAC3 Duration : 44 min 14 s Bit rate mode : Constant Bit rate : 224 kb/s Channel(s) : 2 channels Channel layout : L R Sampling rate : 48.0 kHz Frame rate : 31.250 FPS (1536 SPF) Compression mode : Lossy Stream size : 70.9 MiB (2%) Language : English Service kind : Complete Main Default : Yes Forced : No Text ID : 3 Format : UTF-8 Codec ID : S_TEXT/UTF8 Codec ID/Info : UTF-8 Plain Text Duration : 44 min 13 s Bit rate : 91 b/s Count of elements : 682 Stream size : 29.8 KiB (0%) Language : English Default : No Forced : No
    01. How the Universe Built Your Car
    02. Earth Venuss Evil Twin
    03. Monster Black Hole
    04. Edge of the Solar System
    05. Dawn of Life
    06. Secret History of the Moon
    07. The First Oceans
    08. Forces of Mass Construction

    [​IMG][​IMG][​IMG][​IMG][​IMG][​IMG][​IMG][​IMG][​IMG][​IMG][​IMG][​IMG][​IMG][​IMG][​IMG][​IMG]


    Link:
    Nhấn nút Cảm ơn (dưới chân bài) để thấy link!
     
    Chỉnh sửa cuối: 12/10/19
  2. gâu gâu

    gâu gâu Member

    Tham gia ngày:
    2/2/18
    Bài viết:
    67
    Đã được cảm ơn:
    32
    Điểm thành tích:
    18
    Giới tính:
    Nam
    Tiền:
    68 CR
    bộ này có sub hay thuyết minh ko bác chủ
     
  3. tlamhp

    tlamhp Well-Known Member

    Tham gia ngày:
    23/7/12
    Bài viết:
    570
    Đã được cảm ơn:
    298
    Điểm thành tích:
    63
    Giới tính:
    Nam
    Nghề nghiệp:
    Housekeeper
    Nơi ở:
    Oakland CA USA
    Tiền:
    1,174 CR
    Kệ, cứ down về xem nếu không thích lại có thể xoá mà gâu gâu
     
  4. qazwsxrfvtgb

    qazwsxrfvtgb Uploader

    Tham gia ngày:
    26/5/18
    Bài viết:
    367
    Đã được cảm ơn:
    7,656
    Điểm thành tích:
    93
    Tiền:
    438 CR
    bộ này có 7 season, hiện chỉ có sub 3 season đầu
     
  5. DannyNg

    DannyNg Member

    Tham gia ngày:
    12/12/18
    Bài viết:
    91
    Đã được cảm ơn:
    52
    Điểm thành tích:
    18
    Giới tính:
    Nam
    Tiền:
    94 CR
    mấy cái này không có sub chuyên ngành hơi khó hiểu :D:D
     

Chia sẻ trang này